<?xml version="1.0" standalone="no"?>
<!DOCTYPE svg PUBLIC "-//W3C//DTD SVG 1.1//EN" "http://www.w3.org/Graphics/SVG/1.1/DTD/svg11.dtd">
<svg xmlns="http://www.w3.org/2000/svg">
<defs >
<font id="Poppins" horiz-adv-x="882" ><font-face
    font-family="Poppins"
    units-per-em="1000"
    panose-1="0 0 8 0 0 0 0 0 0 0"
    ascent="1050"
    descent="-350"
    alphabetic="0" />
<glyph unicode=" " glyph-name="space" horiz-adv-x="200" />
<glyph unicode="!" glyph-name="exclam" horiz-adv-x="382" d="M359 742L251 253H106L171 742H359ZM254 171L223 0H45L76 171H254Z" />
<glyph unicode="&quot;" glyph-name="quotedbl" horiz-adv-x="417" d="M203 801L152 580H37L64 801H203ZM393 801L342 580H227L254 801H393Z" />
<glyph unicode="#" glyph-name="numbersign" horiz-adv-x="886" d="M720 432L673 311H794L767 155H612L552 0H392L452 155H285L225 0H66L126 155H-20L7 311H187L234 432H92L120 588H295L354 740H513L454 588H621L680 740H840L781 588H907L879 432H720ZM560 432H393L346
311H513L560 432Z" />
<glyph unicode="$" glyph-name="dollar" horiz-adv-x="633" d="M426 508Q427 538 415 557T376 583L348 427L378 417Q440 396 479 378T545 326T573 238Q573 227 569 199Q559 143 521 96T419 21T272 -7L258 -87H215L229 -5Q130 3 72 53T13 187Q13 204 14 213H196Q194
181 208 159T253 128L281 288L259 295Q197 314 158 332T90 384T61 473Q61 494 65 514Q76 575 117 620T221 691T357 718L371 800H414L399 717Q502 710 557 661T612 529Q612 515 611 508H426ZM249 517T249 509Q249 486 264 471T308 442L333 587Q299 585 277 568T250
521Q249 517 249 509ZM387 199T387 207Q387 249 321 274L295 124Q332 125 356 144T386 195Q387 199 387 207Z" />
<glyph unicode="%" glyph-name="percent" horiz-adv-x="804" d="M320 719T358 685T397 589Q397 571 394 551Q379 471 326 427T198 383Q133 383 95 416T56 512Q56 532 60 551Q74 631 128 675T256 719Q320 719 358 685ZM740 709L229 0H65L576 709H740ZM172 537T172
531Q172 509 183 497T214 485Q239 485 257 502T281 551Q283 563 283 569Q283 592 271 604T238 617Q213 617 196 600T174 551Q172 537 172 531ZM672 327T710 294T748 199Q748 178 744 159Q730 79 677 35T550 -10Q486 -10 448 24T409 121Q409 140 412 159Q426 239
480 283T608 327Q672 327 710 294ZM523 116T534 104T566 92Q591 92 608 109T631 159Q633 173 633 178Q633 200 622 212T590 225Q561 225 542 202T523 139Q523 116 534 104Z" />
<glyph unicode="&amp;" glyph-name="ampersand" horiz-adv-x="693" d="M457 0L391 101Q376 83 360 68Q332 34 289 14T194 -7Q101 -7 51 41T0 167Q0 192 4 212Q19 299 75 354T205 419L195 442Q179 481 179 514Q179 564 208 610T291 685T419 714Q510 714 553 676T603
575Q605 565 605 545Q605 513 597 478H438L443 515Q446 543 434 557T396 572Q374 572 359 559T340 526Q339 521 339 513Q339 500 343 489T359 458L629 0H457ZM316 257T295 275T243 294Q208 294 183 274T151 217Q150 212 150 201Q150 171 169 153T221 135Q260 135
288 161T316 227Q316 257 295 275Z" />
<glyph unicode="&apos;" glyph-name="quotesingle" horiz-adv-x="229" d="M205 801L153 580H38L64 801H205Z" />
<glyph unicode="(" glyph-name="parenleft" horiz-adv-x="411" d="M59 592T160 744T401 992H567L564 975Q407 860 314 718T190 402Q177 324 177 263Q177 10 362 -171L359 -187H194Q110 -112 61 0T12 253Q12 321 26 402Q59 592 160 744Z" />
<glyph unicode=")" glyph-name="parenright" horiz-adv-x="413" d="M354 212T253 60T12 -187H-154L-152 -171Q163 56 223 402Q236 473 236 542Q236 794 51 975L53 992H220Q304 917 352 804T401 549Q401 477 388 403Q354 212 253 60Z" />
<glyph unicode="*" glyph-name="asterisk" horiz-adv-x="528" d="M432 695L470 593L339 550L455 509L376 403L292 491L294 360H177L224 491L109 401L66 509L197 552L82 593L158 695L246 609L243 740H362L313 609L432 695Z" />
<glyph unicode="+" glyph-name="plus" horiz-adv-x="561" d="M522 271H349L318 95H153L184 271H11L39 428H212L243 605H408L377 428H550L522 271Z" />
<glyph unicode="," glyph-name="comma" horiz-adv-x="237" d="M199 70T199 27Q199 -25 180 -72T120 -149T17 -179L28 -116Q55 -116 69 -104T90 -58L92 -48H19L46 106H187Q199 70 199 27Z" />
<glyph unicode="-" glyph-name="hyphen" horiz-adv-x="543" d="M524 422L499 280H58L83 422H524Z" />
<glyph unicode="." glyph-name="period" horiz-adv-x="236" d="M222 171L191 0H14L44 171H222Z" />
<glyph unicode="/" glyph-name="slash" horiz-adv-x="389" d="M514 950L45 -188H-120L350 950H514Z" />
<glyph unicode="0" glyph-name="zero" horiz-adv-x="636" d="M31 297T31 246Q31 131 86 66T260 1Q406 1 490 98T604 361Q615 424 615 475Q615 590 560 654T386 719Q239 719 155 623T42 361Q31 297 31 246ZM417 266T386 215T288 163Q240 163 220 190T200 268Q200
304 210 361Q227 455 258 506T357 557Q405 557 424 530T444 454Q444 416 434 361Q417 266 386 215Z" />
<glyph unicode="1" glyph-name="one" horiz-adv-x="356" d="M46 547L73 707H359L235 0H55L152 547H46Z" />
<glyph unicode="2" glyph-name="two" horiz-adv-x="564" d="M163 238T266 328T383 492Q386 507 386 519Q386 579 324 579Q285 579 261 552T227 464H60Q75 552 119 610T224 695T355 723Q461 723 513 676T565 550Q565 529 560 501Q543 402 448 309T228 146H507L483
8H-22L0 136Q163 238 266 328Z" />
<glyph unicode="3" glyph-name="three" horiz-adv-x="574" d="M463 738T516 692T570 571Q570 558 566 532Q555 468 512 429T413 378L412 373Q462 356 492 319T522 222Q522 197 518 176Q504 93 436 43T257 -7Q140 -7 77 46T14 202Q14 212 16 236H183Q181 220 181
214Q181 177 202 156T267 135Q302 135 325 153T354 202Q356 216 356 223Q356 301 244 301H212L236 440H268Q381 438 396 518Q397 524 397 536Q397 565 381 580T335 596Q299 596 274 572T240 506H73Q95 618 171 678T364 738Q463 738 516 692Z" />
<glyph unicode="4" glyph-name="four" horiz-adv-x="644" d="M4 130L29 273L430 716H614L537 279H622L595 130H511L488 0H315L338 130H4ZM420 518L204 279H378L420 518Z" />
<glyph unicode="5" glyph-name="five" horiz-adv-x="598" d="M579 574H261L235 431Q262 455 301 468T385 482Q474 482 518 432T562 301Q562 276 557 244Q537 131 461 65T269 -2Q159 -2 99 48T38 185Q38 203 41 224H208Q206 190 225 168T286 146Q330 146 356 173T391
247Q394 262 394 274Q394 309 374 328T317 348Q286 348 261 334T223 296H56L132 724H605L579 574Z" />
<glyph unicode="6" glyph-name="six" horiz-adv-x="607" d="M424 555T407 577T351 599Q294 599 262 546T211 381Q235 422 280 445T381 469Q466 469 514 423T562 291Q562 261 556 228Q538 122 465 58T278 -7Q41 -7 41 242Q41 297 54 370Q87 558 163 647T378 736Q486
736 536 682T586 540Q586 521 585 512H425Q424 555 407 577ZM197 183T219 162T284 140Q335 140 366 170T398 257Q398 296 377 316T317 337Q268 337 233 307T197 220Q197 183 219 162Z" />
<glyph unicode="7" glyph-name="seven" horiz-adv-x="492" d="M527 587L171 0H-6L350 567H50L75 714H550L527 587Z" />
<glyph unicode="8" glyph-name="eight" horiz-adv-x="622" d="M107 606T143 649T242 718T388 745Q461 745 511 721T586 658T611 572Q611 555 608 538Q591 437 479 392Q577 345 577 238Q577 213 573 192Q555 93 469 39T253 -15Q150 -15 85 35T19 176Q19 202 23
223Q45 341 173 392Q135 409 115 441T94 519Q94 530 98 558Q107 606 143 649ZM260 468T279 452T333 435Q373 435 400 456T435 517Q437 531 437 537Q437 570 417 587T363 605Q319 605 290 577T260 500Q260 468 279 452ZM188 168T212 147T279 126Q334 126 369 157T404
240Q404 277 379 298T313 319Q260 319 224 289T188 204Q188 168 212 147Z" />
<glyph unicode="9" glyph-name="nine" horiz-adv-x="579" d="M189 130T263 130Q321 130 354 183T404 348Q381 308 335 284T235 260Q150 260 102 306T53 438Q53 468 59 501Q77 607 153 671T345 736Q470 736 523 675T577 501Q577 437 563 359Q542 237 506 158T408
36T247 -7Q169 -7 120 25T49 107T31 217H191Q189 130 263 130ZM418 547T397 568T332 589Q287 589 257 564T219 491Q217 482 217 466Q217 430 239 411T299 392Q347 392 382 423T418 511Q418 547 397 568Z" />
<glyph unicode=":" glyph-name="colon" horiz-adv-x="277" d="M283 578L253 407H75L105 578H283ZM211 171L181 0H4L33 171H211Z" />
<glyph unicode=";" glyph-name="semicolon" horiz-adv-x="360" d="M326 571L295 400H118L148 571H326ZM243 70T243 27Q243 -25 224 -72T164 -149T61 -179L72 -116Q99 -116 113 -104T134 -58L136 -48H63L90 106H231Q243 70 243 27Z" />
<glyph unicode="&lt;" glyph-name="less" horiz-adv-x="468" d="M190 130L25 350L268 572H482L239 350L404 130H190Z" />
<glyph unicode="=" glyph-name="equal" horiz-adv-x="611" d="M621 555L594 399H34L61 555H621ZM577 300L550 145H-11L16 300H577Z" />
<glyph unicode="&gt;" glyph-name="greater" horiz-adv-x="468" d="M64 572H278L443 350L200 130H-14L229 350L64 572Z" />
<glyph unicode="?" glyph-name="question" horiz-adv-x="524" d="M426 758T479 715T533 589Q533 564 529 543Q512 449 440 397T266 342L250 253H89L125 452H192Q264 452 308 472T361 542Q362 548 362 559Q362 587 346 602T301 618Q265 618 243 597T213 542H51Q61
603 96 652T192 729T332 758Q426 758 479 715ZM245 171L215 0H38L68 171H245Z" />
<glyph unicode="@" glyph-name="at" horiz-adv-x="1271" d="M949 822T1052 780T1211 655T1266 454Q1266 407 1257 356Q1239 256 1181 173T1043 41T881 -8Q811 -8 770 23T730 120Q640 -8 505 -8Q425 -8 379 40T332 172Q332 219 346 267Q368 353 424 420T558 526T724
564Q819 564 875 520T931 395Q931 353 917 310L888 217Q880 190 880 176Q880 157 890 150T920 142Q951 142 984 165T1043 236T1081 350Q1087 386 1087 420Q1087 543 1003 612T754 682Q605 682 488 622T298 460T203 229Q195 183 195 145Q195 12 284 -62T553 -135L497
-274Q266 -271 146 -170T26 115Q26 166 37 229Q69 410 182 544T459 750T804 822Q949 822 1052 780ZM641 142T687 179T750 290Q756 316 756 335Q756 376 732 395T667 415Q616 415 572 378T510 270Q504 246 504 226Q504 184 528 163T591 142Q641 142 687 179Z" />
<glyph unicode="A" glyph-name="A" horiz-adv-x="730" d="M459 129H194L127 0H-54L329 702H526L661 0H480L459 129ZM438 259L395 519L261 259H438Z" />
<glyph unicode="B" glyph-name="B" horiz-adv-x="653" d="M625 462T584 420T484 364Q538 351 567 314T597 225Q597 210 594 193Q578 102 509 51T326 0H-3L121 707H442Q537 707 588 670T640 564Q640 552 636 526Q625 462 584 420ZM242 418H353Q442 418 456 494Q458
506 458 512Q458 570 378 570H268L242 418ZM425 229T425 235Q425 265 404 281T342 298H221L192 139H314Q410 139 423 217Q425 229 425 235Z" />
<glyph unicode="C" glyph-name="C" horiz-adv-x="757" d="M580 714T656 643T736 451H556Q545 500 509 528T414 556Q340 556 284 501T212 354Q207 324 207 303Q207 233 244 193T344 153Q401 153 447 181T522 257H703Q655 137 554 66T319 -6Q229 -6 164 29T65 127T31
275Q31 316 38 354Q56 459 113 541T256 668T445 714Q580 714 656 643Z" />
<glyph unicode="D" glyph-name="D" horiz-adv-x="733" d="M677 251T619 171T469 45T264 0H-3L121 707H388Q487 707 558 673T665 577T702 430Q702 391 695 355Q677 251 619 171ZM375 153T440 206T522 355Q527 383 527 403Q527 477 480 517T347 557H266L195 153H276Q375
153 440 206Z" />
<glyph unicode="E" glyph-name="E" horiz-adv-x="537" d="M268 571L243 423H481L458 294H219L192 137H461L437 0H-3L121 707H561L537 571H268Z" />
<glyph unicode="F" glyph-name="F" horiz-adv-x="549" d="M582 707L558 571H268L241 416H465L442 286H219L168 0H-3L121 707H582Z" />
<glyph unicode="G" glyph-name="G" horiz-adv-x="762" d="M583 714T656 648T737 473H557Q545 511 512 533T427 556Q346 556 287 502T212 354Q207 329 207 299Q207 224 249 185T373 145Q434 145 486 178T568 274H352L374 397H732L703 228Q656 123 562 59T329 -6Q236
-6 169 29T67 130T31 282Q31 323 38 362Q56 464 113 544T259 669T453 714Q583 714 656 648Z" />
<glyph unicode="H" glyph-name="H" horiz-adv-x="729" d="M732 707L608 0H436L488 295H220L168 0H-3L121 707H292L244 433H512L560 707H732Z" />
<glyph unicode="I" glyph-name="I" horiz-adv-x="289" d="M292 707L168 0H-3L121 707H292Z" />
<glyph unicode="J" glyph-name="J" horiz-adv-x="549" d="M558 707L472 224Q453 113 382 53T204 -7Q104 -7 48 42T-9 185Q-9 214 -3 247H166Q163 228 163 213Q163 148 223 148Q289 148 301 224L387 707H558Z" />
<glyph unicode="K" glyph-name="K" horiz-adv-x="690" d="M393 361L615 0H408L224 318L168 0H-3L121 707H292L237 395L534 707H739L393 361Z" />
<glyph unicode="L" glyph-name="L" horiz-adv-x="478" d="M191 131H419L396 0H-3L121 707H292L191 131Z" />
<glyph unicode="M" glyph-name="M" horiz-adv-x="913" d="M915 702L792 0H622L699 441L469 0H322L246 440L169 0H-3L120 702H329L435 213L707 702H915Z" />
<glyph unicode="N" glyph-name="N" horiz-adv-x="746" d="M625 0H454L244 434L168 0H-3L121 707H292L501 269L578 707H749L625 0Z" />
<glyph unicode="O" glyph-name="O" horiz-adv-x="777" d="M528 718T599 680T708 572T746 411Q746 372 738 326Q721 228 668 153T532 35T348 -7Q249 -7 178 31T69 138T31 299Q31 338 39 386Q56 483 110 558T246 676T431 718Q528 718 599 680ZM337 559T280 507T206
363Q201 333 201 313Q201 238 243 196T361 153Q441 153 498 206T572 348Q576 372 576 399Q576 474 535 516T418 559Q337 559 280 507Z" />
<glyph unicode="P" glyph-name="P" horiz-adv-x="619" d="M212 248L168 0H-3L121 707H398Q508 707 564 659T621 526Q621 506 616 476Q604 410 565 359T463 278T317 248H212ZM425 385T442 476Q444 492 444 499Q444 569 355 569H268L236 385H323Q425 385 442 476Z" />
<glyph unicode="Q" glyph-name="Q" horiz-adv-x="777" d="M722 234T674 162T553 47L667 -124H462L395 -5Q365 -7 348 -7Q249 -7 178 31T69 138T31 299Q31 338 39 386Q56 483 110 558T246 676T431 718Q528 718 599 680T708 572T746 411Q746 372 738 326Q722 234
674 162ZM576 372T576 399Q576 474 535 516T418 559Q337 559 280 507T206 363Q201 333 201 313Q201 238 243 196T361 153Q441 153 498 206T572 348Q576 372 576 399Z" />
<glyph unicode="R" glyph-name="R" horiz-adv-x="636" d="M523 707T579 658T636 528Q636 503 632 483Q618 406 566 352T430 278L549 0H360L254 267H215L168 0H-3L121 707H413Q523 707 579 658ZM458 487T458 494Q458 563 373 563H268L235 384H341Q441 384 456 473Q458
487 458 494Z" />
<glyph unicode="S" glyph-name="S" horiz-adv-x="600" d="M529 124T495 83T403 18T272 -7Q150 -7 82 52T13 213H195Q192 173 213 150T274 127Q310 127 332 149T355 206Q355 231 340 248T303 278T238 307Q181 330 146 350T85 408T60 501Q60 526 64 549Q78 627 151
672T326 718Q451 718 513 662T579 508H395Q397 543 379 563T324 584Q291 584 270 566T248 513Q248 490 262 474T299 446T362 418Q419 395 454 375T516 317T542 223Q542 198 538 174Q529 124 495 83Z" />
<glyph unicode="T" glyph-name="T" horiz-adv-x="580" d="M629 707L605 571H413L313 0H141L241 571H51L75 707H629Z" />
<glyph unicode="U" glyph-name="U" horiz-adv-x="697" d="M288 707L217 299Q213 278 213 254Q213 206 238 181T313 155Q374 155 412 192T463 299L534 707H705L633 299Q616 199 565 131T440 28T281 -7Q170 -7 105 51T39 221Q39 260 46 299L118 707H288Z" />
<glyph unicode="V" glyph-name="V" horiz-adv-x="727" d="M253 707L332 175L599 707H782L412 0H191L70 707H253Z" />
<glyph unicode="W" glyph-name="W" horiz-adv-x="1051" d="M1082 707L789 0H577L547 473L350 0H138L93 707H279L280 195L494 707H681L715 195L897 707H1082Z" />
<glyph unicode="X" glyph-name="X" horiz-adv-x="698" d="M452 352L629 0H426L315 220L149 0H-47L243 364L70 707H273L380 494L543 707H738L452 352Z" />
<glyph unicode="Y" glyph-name="Y" horiz-adv-x="677" d="M732 707L403 235L363 0H191L232 235L70 707H266L352 419L538 707H732Z" />
<glyph unicode="Z" glyph-name="Z" horiz-adv-x="594" d="M198 138H510L486 0H-16L7 130L391 570H88L112 707H608L585 577L198 138Z" />
<glyph unicode="[" glyph-name="bracketleft" horiz-adv-x="455" d="M503 950L478 812H329L178 -50H327L302 -188H-8L193 950H503Z" />
<glyph unicode="\" glyph-name="backslash" horiz-adv-x="777" d="M326 -188L258 950H423L490 -188H326Z" />
<glyph unicode="]" glyph-name="bracketright" horiz-adv-x="452" d="M-50 -188L-25 -50H125L276 812H126L151 950H461L260 -188H-50Z" />
<glyph unicode="^" glyph-name="asciicircum" horiz-adv-x="707" d="M152 165H-19L318 704H485L631 165H461L367 508L152 165Z" />
<glyph unicode="_" glyph-name="underscore" horiz-adv-x="684" d="M636 -39L607 -206H-13L17 -39H636Z" />
<glyph unicode="`" glyph-name="grave" horiz-adv-x="310" d="M318 714L298 598L75 701L98 830L318 714Z" />
<glyph unicode="a" glyph-name="a" horiz-adv-x="680" d="M383 565T426 536T482 457L500 558H671L572 0H401L420 101Q390 51 339 22T222 -7Q131 -7 78 51T25 214Q25 255 32 294Q47 377 88 438T189 532T316 565Q383 565 426 536ZM298 415T258 379T206 279Q203 261
203 246Q203 197 230 170T304 143Q358 143 399 180T451 279Q454 296 454 311Q454 360 427 387T353 415Q298 415 258 379Z" />
<glyph unicode="b" glyph-name="b" horiz-adv-x="679" d="M5 0L136 740H307L257 457Q287 507 338 536T454 565Q543 565 596 508T650 350Q650 317 644 279Q628 192 586 127T482 28T353 -7Q288 -7 248 22T195 101L176 0H5ZM378 143T418 179T470 279Q473 297 473
312Q473 361 446 388T372 415Q318 415 277 379T225 279Q222 263 222 247Q222 198 249 171T323 143Q378 143 418 179Z" />
<glyph unicode="c" glyph-name="c" horiz-adv-x="619" d="M467 565T531 506T597 342H415Q413 378 392 398T333 418Q288 418 253 383T205 279Q201 259 201 237Q201 189 224 165T285 140Q323 140 351 160T393 216H574Q537 112 454 53T262 -7Q154 -7 90 54T25 224Q25
250 32 294Q47 377 93 438T207 532T356 565Q467 565 531 506Z" />
<glyph unicode="d" glyph-name="d" horiz-adv-x="675" d="M698 740L567 0H396L414 101Q384 51 333 22T217 -7Q128 -7 74 53T20 218Q20 256 27 294Q42 377 83 438T184 532T311 565Q378 565 421 536T476 457L527 740H698ZM293 415T253 379T201 279Q198 261 198 246Q198
197 225 170T299 143Q353 143 394 180T446 279Q449 296 449 311Q449 360 422 387T348 415Q293 415 253 379Z" />
<glyph unicode="e" glyph-name="e" horiz-adv-x="620" d="M471 565T533 507T596 350Q596 327 591 294Q587 270 578 248H191Q189 228 189 221Q189 130 276 130Q313 130 342 149T384 198H565Q532 107 451 50T260 -7Q152 -7 89 53T25 219Q25 251 31 287Q46 372 93
435T209 531T361 565Q471 565 533 507ZM425 337T425 350Q425 390 400 410T337 430Q290 430 254 402T204 320H422Q425 337 425 350Z" />
<glyph unicode="f" glyph-name="f" horiz-adv-x="368" d="M376 634Q334 634 312 616T281 558H381L356 414H255L182 0H11L84 414H17L42 558H109L110 564Q128 668 199 724T385 781Q409 781 421 780L395 633L376 634Z" />
<glyph unicode="g" glyph-name="g" horiz-adv-x="677" d="M134 -7T80 53T26 218Q26 256 33 294Q48 377 89 438T190 532T317 565Q385 565 428 536T483 457L501 558H671L573 3Q560 -75 520 -137T412 -237T256 -274Q132 -274 65 -215T-5 -53H164Q167 -87 192 -106T263
-125Q316 -125 353 -95T403 3L421 101Q391 51 340 22T223 -7Q134 -7 80 53ZM298 415T258 379T207 279Q204 261 204 245Q204 197 231 170T305 143Q359 143 400 180T452 279Q455 296 455 311Q455 360 427 387T353 415Q298 415 258 379Z" />
<glyph unicode="h" glyph-name="h" horiz-adv-x="676" d="M545 564T590 518T636 387Q636 357 630 324L573 0H403L456 304Q459 321 459 334Q459 377 435 400T368 423Q321 423 287 396T237 316L182 0H10L140 740H312L262 458Q295 507 347 535T464 564Q545 564 590 518Z" />
<glyph unicode="i" glyph-name="i" horiz-adv-x="288" d="M118 744T152 774T237 805Q277 805 300 785T324 731Q324 687 291 657T206 626Q165 626 142 646T118 699Q118 744 152 774ZM279 558L180 0H9L107 558H279Z" />
<glyph unicode="j" glyph-name="j" horiz-adv-x="290" d="M170 626T147 646T124 700Q124 744 158 774T244 805Q284 805 307 785T330 732Q330 688 297 657T212 626Q170 626 147 646ZM-100 -119H-59Q-32 -119 -18 -108T2 -69L113 558H284L173 -67Q139 -266 -61 -266H-126L-100
-119Z" />
<glyph unicode="k" glyph-name="k" horiz-adv-x="606" d="M368 285L541 0H343L220 242L177 0H5L135 740H307L237 341L441 558H642L368 285Z" />
<glyph unicode="l" glyph-name="l" horiz-adv-x="285" d="M312 740L182 0H10L140 740H312Z" />
<glyph unicode="m" glyph-name="m" horiz-adv-x="1058" d="M920 564T968 517T1016 384Q1016 350 1011 324L954 0H783L837 304Q839 313 839 331Q839 372 816 394T750 416Q700 416 666 386T621 300L620 297V296V296L567 0H397L450 304Q453 319 453 332Q453 372 430
394T364 416Q314 416 279 385T233 296L181 0H9L107 558H279L262 463Q293 510 343 537T453 564Q517 564 561 535T621 450Q658 502 714 533T832 564Q920 564 968 517Z" />
<glyph unicode="n" glyph-name="n" horiz-adv-x="676" d="M545 564T590 518T636 386Q636 357 630 324L572 0H402L455 304Q458 321 458 335Q458 377 434 400T367 423Q316 423 280 390T233 296L181 0H9L107 558H279L261 458Q294 507 346 535T463 564Q545 564 590 518Z" />
<glyph unicode="o" glyph-name="o" horiz-adv-x="640" d="M440 565T496 537T584 456T616 329Q616 299 610 264Q595 181 547 120T429 26T277 -7Q202 -7 145 21T57 103T25 229Q25 260 31 294Q46 377 94 438T213 532T366 565Q440 565 496 537ZM296 417T257 382T205
279Q201 253 201 242Q201 193 227 168T296 142Q345 142 384 177T436 279Q439 299 439 316Q439 365 413 391T345 417Q296 417 257 382Z" />
<glyph unicode="p" glyph-name="p" horiz-adv-x="679" d="M547 565T600 508T654 350Q654 317 648 279Q632 192 590 127T486 28T357 -7Q292 -7 252 22T199 101L134 -266H-38L108 558H279L261 457Q291 507 342 536T458 565Q547 565 600 508ZM382 143T422 179T474
279Q477 297 477 312Q477 361 450 388T376 415Q322 415 281 379T229 279Q226 263 226 247Q226 198 253 171T327 143Q382 143 422 179Z" />
<glyph unicode="q" glyph-name="q" horiz-adv-x="674" d="M668 558L523 -266H352L415 90Q341 -6 232 -6Q134 -6 79 54T23 217Q23 255 30 291Q45 377 88 438T194 531T325 563Q444 563 483 477L497 558H668ZM299 414T257 378T203 276Q200 258 200 243Q200 193 229
168T302 143Q352 143 394 178T448 279Q451 297 451 312Q451 362 422 388T350 414Q299 414 257 378Z" />
<glyph unicode="r" glyph-name="r" horiz-adv-x="435" d="M302 504T357 534T472 564L440 381H390Q322 381 280 352T226 254L181 0H9L107 558H279L261 453Q302 504 357 534Z" />
<glyph unicode="s" glyph-name="s" horiz-adv-x="550" d="M402 565T464 513T533 372H365Q364 407 339 426T271 445Q240 445 221 433T201 398Q201 375 228 362T310 335Q371 318 409 303T476 256T504 173Q504 152 500 135Q488 72 428 33T265 -7Q152 -7 84 43T11
186H179Q176 150 204 131T279 112Q313 112 330 125T347 161Q347 186 321 198T237 227Q179 242 141 257T76 303T48 384Q48 395 52 421Q62 484 123 524T286 565Q402 565 464 513Z" />
<glyph unicode="t" glyph-name="t" horiz-adv-x="412" d="M237 206Q235 192 235 187Q235 166 247 157T286 147H340L314 0H236Q152 0 107 35T61 150Q61 182 66 209L102 414H28L54 558H128L152 695H324L300 558H411L386 414H274L237 206Z" />
<glyph unicode="u" glyph-name="u" horiz-adv-x="665" d="M656 558L558 0H386L404 102Q372 52 319 23T202 -6Q121 -6 76 40T30 172Q30 201 36 234L93 558H264L210 255Q207 239 207 225Q207 182 231 159T298 135Q349 135 385 168T432 262V258L485 558H656Z" />
<glyph unicode="v" glyph-name="v" horiz-adv-x="610" d="M274 167L465 558H647L350 0H138L39 558H221L274 167Z" />
<glyph unicode="w" glyph-name="w" horiz-adv-x="863" d="M910 558L668 0H477L442 375L273 0H82L39 558H209L212 156L387 558H569L605 155L751 558H910Z" />
<glyph unicode="x" glyph-name="x" horiz-adv-x="590" d="M387 274L536 0H344L258 159L137 0H-52L185 292L41 558H233L318 401L438 558H627L387 274Z" />
<glyph unicode="y" glyph-name="y" horiz-adv-x="626" d="M224 558L297 216L482 558H672L178 -266H-11L172 21L33 558H224Z" />
<glyph unicode="z" glyph-name="z" horiz-adv-x="490" d="M186 143H444L418 0H-27L-3 135L286 416H51L77 558H507L483 423L186 143Z" />
<glyph unicode="{" glyph-name="braceleft" horiz-adv-x="458" d="M288 353T288 270Q288 260 284 234Q280 208 271 180T260 143Q240 86 232 39Q226 5 226 -26Q226 -94 253 -139T324 -204L321 -217H146Q114 -201 84 -154T53 -28Q53 7 60 43Q67 84 89 147Q107 201
114 238Q116 254 116 261Q116 293 97 315T33 342L43 402Q144 413 161 506Q166 534 167 563T168 599Q168 605 169 636T176 701Q190 779 223 834T291 919T354 961H529L527 948Q465 924 416 862T348 705Q341 662 341 605Q339 544 333 511Q323 453 290 419T198 373V371Q288
353 288 270Z" />
<glyph unicode="|" glyph-name="bar" horiz-adv-x="244" d="M124 -130H-47L120 816H291L124 -130Z" />
<glyph unicode="}" glyph-name="braceright" horiz-adv-x="443" d="M172 392T172 468Q172 481 175 496Q182 534 200 585Q202 592 212 624T228 690Q234 725 234 755Q234 826 208 877T139 948L141 961H316Q348 945 378 898T408 771Q408 740 402 701Q396 668 386
637T374 601Q354 538 348 506Q346 490 346 482Q346 448 365 426T429 402L419 342Q365 341 336 310T300 238Q294 200 294 148Q294 142 293 110T286 43Q272 -35 239 -90T171 -175T108 -217H-67L-65 -204Q-26 -189 11 -152T77 -62T116 54Q124 99 124 157Q126 217 132
249Q149 350 264 371V373Q172 392 172 468Z" />
<glyph unicode="~" glyph-name="asciitilde" horiz-adv-x="636" d="M276 426T300 416T355 387Q379 373 395 366T428 359Q455 359 472 375T501 427H631Q593 315 532 261T393 207Q360 207 335 217T280 246Q258 260 242 267T207 274Q157 274 134 206H6Q44 318 104
372T243 426Q276 426 300 416Z" />
<glyph unicode="&#xa0;" glyph-name="uni00A0" horiz-adv-x="200" />
<glyph unicode="&#xa1;" glyph-name="exclamdown" horiz-adv-x="403" d="M22 -176L136 313H290L221 -176H22ZM133 395L166 566H354L321 395H133Z" />
<glyph unicode="&#xa2;" glyph-name="cent" horiz-adv-x="581" d="M274 378T239 347T194 257Q191 241 191 227Q191 184 215 161T280 138Q313 138 343 156T386 207H543Q520 119 450 65T289 2L274 -86H200L216 2Q125 11 75 62T25 200Q25 232 30 258Q50 370 123 436T305
513L320 598H394L379 513Q461 505 511 457T562 330Q562 315 561 308H404Q401 342 379 360T322 378Q274 378 239 347Z" />
<glyph unicode="&#xa3;" glyph-name="sterling" horiz-adv-x="629" d="M471 529Q473 568 455 592T399 617Q362 617 336 593T302 523Q299 507 299 489Q299 467 303 439T308 402H482L462 288H312L311 282Q304 245 280 203T214 129H559L535 -5H23L17 78Q74 120 105
167T148 282L149 288H35L56 402H140Q136 444 136 468Q136 503 142 542Q159 641 234 698T418 756Q523 756 577 703T631 562Q631 551 629 529H471Z" />
<glyph unicode="&#xa4;" glyph-name="currency" horiz-adv-x="578" d="M480 491Q502 460 502 414Q502 397 499 379Q487 314 442 267L485 215L410 151L359 214Q313 196 258 196Q204 196 161 215L86 151L34 215L98 269Q79 302 79 344Q79 361 82 379Q94 443 138 489L92
544L167 608L222 541Q270 558 322 558Q375 558 413 542L491 608L543 544L480 491ZM212 363T212 357Q212 327 229 312T276 296Q312 296 340 322T368 397Q368 428 351 444T305 460Q272 460 247 439T214 377Q212 363 212 357Z" />
<glyph unicode="&#xa5;" glyph-name="yen" horiz-adv-x="688" d="M543 426H643L623 313H464L428 261H614L594 148H395L369 0H197L223 148H22L43 261H229L211 313H52L71 426H172L76 707H272L353 392L544 707H738L543 426Z" />
<glyph unicode="&#xa6;" glyph-name="brokenbar" horiz-adv-x="372" d="M184 816H355L283 406H111L184 816ZM188 -130H17L89 282H261L188 -130Z" />
<glyph unicode="&#xa7;" glyph-name="section" horiz-adv-x="588" d="M403 530Q404 536 404 548Q404 608 348 608Q323 608 307 594T291 552Q291 524 320 501T425 442Q490 410 525 373T560 284Q560 267 558 258Q539 155 419 109Q474 57 474 -11Q474 -25 471 -40Q457
-118 390 -165T215 -213Q118 -213 67 -165T15 -36Q15 -22 16 -14H185Q184 -20 184 -31Q184 -92 240 -92Q265 -92 281 -78T297 -35Q297 -7 268 16T163 75Q99 105 64 142T29 231Q29 288 63 336T170 407Q114 460 114 527Q114 541 117 556Q131 634 198 681T373 729Q470
729 521 681T573 552Q573 538 572 530H403ZM266 336T239 308T212 241Q212 213 230 197T280 180Q323 180 350 208T377 274Q377 302 360 319T309 336Q266 336 239 308Z" />
<glyph unicode="&#xa8;" glyph-name="dieresis" horiz-adv-x="393" d="M89 724T113 745T167 766Q195 766 211 750T228 708Q228 673 203 648T142 622Q115 622 99 638T82 680Q82 689 83 693Q89 724 113 745ZM285 715T310 740T369 766Q397 766 413 750T430 708Q430
673 405 648T344 622Q318 622 302 638T285 679Q285 715 310 740Z" />
<glyph unicode="&#xa9;" glyph-name="copyright" horiz-adv-x="779" d="M350 716T262 671T115 543T38 357Q31 321 31 282Q31 197 67 132T170 32T327 -4Q431 -4 519 42T665 170T742 357Q749 393 749 432Q749 517 714 581T611 680T454 716Q350 716 262 671ZM562
662T626 599T691 426Q691 393 685 357Q669 266 621 196T499 88T336 49Q218 49 154 113T89 287Q89 321 95 357Q111 448 159 517T281 624T445 662Q562 662 626 599ZM513 581T563 534T613 407H469Q466 435 450 451T406 467Q370 467 342 439T304 356Q301 338 301 323Q301
284 319 264T367 244Q394 244 416 260T451 304H595Q566 224 500 178T354 131Q268 131 217 177T166 306Q166 326 171 356Q183 425 220 476T313 554T434 581Q513 581 563 534Z" />
<glyph unicode="&#xaa;" glyph-name="ordfeminine" horiz-adv-x="454" d="M307 711T330 644L342 707H470L408 355H280L291 417Q267 383 235 366T158 349Q95 349 58 385T21 487Q21 510 25 530Q40 614 94 662T221 711Q307 711 330 644ZM215 609T190 588T157 529Q155
517 155 511Q155 483 172 468T219 452Q253 452 278 473T311 531Q312 537 312 547Q312 577 295 593T247 609Q215 609 190 588Z" />
<glyph unicode="&#xab;" glyph-name="guillemotleft" horiz-adv-x="557" d="M99 120L45 295L161 470H318L201 295L256 120H99ZM326 120L273 295L388 470H546L428 295L484 120H326Z" />
<glyph unicode="&#xac;" glyph-name="logicalnot" horiz-adv-x="773" d="M736 442L689 180H518L542 313H31L54 442H736Z" />
<glyph unicode="&#xad;" glyph-name="uni00AD" horiz-adv-x="543" d="M524 422L499 280H58L83 422H524Z" />
<glyph unicode="&#xae;" glyph-name="registered" horiz-adv-x="811" d="M565 716T635 681T743 582T781 431Q781 393 774 357Q756 252 695 170T543 42T343 -4Q248 -4 178 32T69 133T31 285Q31 313 38 357Q57 462 117 543T270 670T470 716Q565 716 635 681ZM723
393T723 425Q723 536 654 599T461 663Q366 663 289 626T161 519T95 357Q89 323 89 290Q89 179 158 115T352 51Q446 51 523 89T650 196T717 357Q723 393 723 425ZM540 578T573 549T606 473Q606 422 575 381T484 325L558 150H442L375 318H355L326 150H219L295 578H470Q540
578 573 549ZM494 437T494 445Q494 482 442 482H384L367 385H425Q485 385 493 433Q494 437 494 445Z" />
<glyph unicode="&#xaf;" glyph-name="overscore" horiz-adv-x="436" d="M488 746L468 631H67L88 746H488Z" />
<glyph unicode="&#xb0;" glyph-name="degree" horiz-adv-x="461" d="M345 709T392 672T440 567Q440 556 436 530Q422 446 359 397T203 347Q120 347 71 386T22 495Q22 512 25 530Q40 613 104 661T263 709Q345 709 392 672ZM216 618T191 595T157 528Q155 512 155
506Q155 473 173 456T219 439Q249 439 273 462T305 528Q307 537 307 552Q307 585 291 601T248 618Q216 618 191 595Z" />
<glyph unicode="&#xb1;" glyph-name="plusminus" horiz-adv-x="561" d="M369 356L350 250H523L496 95H-15L12 250H186L204 356H32L59 511H232L253 631H417L396 511H569L542 356H369Z" />
<glyph unicode="&#xb2;" glyph-name="twosuperior" horiz-adv-x="392" d="M317 715T348 690T379 625Q379 581 344 549T229 483L157 450H346L328 352H14L30 446L175 527Q235 562 242 599Q245 625 220 625Q187 625 175 576H48Q64 637 118 676T252 715Q317 715 348 690Z" />
<glyph unicode="&#xb3;" glyph-name="threesuperior" horiz-adv-x="378" d="M292 715T327 691T363 626Q363 616 362 611Q350 548 275 535L274 531Q309 523 325 507T341 465Q341 412 293 381T166 349Q81 349 45 376T8 457L9 473H143Q141 453 148 446T170 438Q188
438 199 449T210 482Q210 510 173 510H135L142 555H174Q216 555 223 594Q225 609 219 617T198 626Q168 626 157 588H35Q47 642 94 678T228 715Q292 715 327 691Z" />
<glyph unicode="&#xb4;" glyph-name="acute" horiz-adv-x="276" d="M316 701L57 598L77 714L339 830L316 701Z" />
<glyph unicode="&#xb5;" glyph-name="uni00B5" horiz-adv-x="681" d="M676 558L577 0H406L423 95Q392 49 343 22T232 -6Q203 -6 186 6L138 -266H-33L113 558H284L232 265Q229 249 229 233Q229 189 253 166T322 143Q372 143 407 174T452 263V256L505 558H676Z" />
<glyph unicode="&#xb6;" glyph-name="paragraph" horiz-adv-x="706" d="M567 0H429L530 573H459L359 0H222L269 273H246Q142 273 92 321T41 445Q41 459 45 487Q56 545 89 594T182 672T321 702H690L567 0Z" />
<glyph unicode="&#xb7;" glyph-name="middot" horiz-adv-x="258" d="M242 401L211 230H34L64 401H242Z" />
<glyph unicode="&#xb8;" glyph-name="cedilla" horiz-adv-x="320" d="M233 -41T266 -63T300 -133Q300 -140 298 -156Q288 -214 243 -240T139 -267H-7L9 -177H137Q178 -177 183 -151Q186 -138 177 -130T147 -122H74L97 7H198L189 -43Q233 -41 266 -63Z" />
<glyph unicode="&#xb9;" glyph-name="onesuperior" horiz-adv-x="252" d="M39 604L56 704H247L185 352H57L102 604H39Z" />
<glyph unicode="&#xba;" glyph-name="ordmasculine" horiz-adv-x="441" d="M342 709T388 669T434 562Q434 546 431 528Q422 476 390 435T308 370T196 346Q115 346 69 387T22 495Q22 512 25 528Q34 580 66 621T149 686T260 709Q342 709 388 669ZM211 610T187 589T155
528Q153 514 153 507Q153 478 170 462T213 446Q245 446 269 467T301 528Q303 544 303 550Q303 579 287 594T243 610Q211 610 187 589Z" />
<glyph unicode="&#xbb;" glyph-name="guillemotright" horiz-adv-x="557" d="M138 295L81 470H240L292 295L178 120H19L138 295ZM365 295L309 470H467L520 295L405 120H247L365 295Z" />
<glyph unicode="&#xbc;" glyph-name="onequarter" horiz-adv-x="807" d="M701 707L199 0H32L534 707H701ZM36 604L53 704H244L182 352H54L99 604H36ZM729 63H689L678 0H549L560 63H365L377 130L566 352H740L702 134H742L729 63ZM603 265L499 137H581L603 265Z" />
<glyph unicode="&#xbd;" glyph-name="onehalf" horiz-adv-x="844" d="M714 709L204 0H36L547 709H714ZM125 604H62L79 704H270L208 352H80L125 604ZM727 362T758 337T789 272Q789 228 754 196T639 130L567 97H756L738 -1H424L440 93L585 174Q645 209 652 246Q655
272 630 272Q597 272 585 223H458Q474 284 528 323T662 362Q727 362 758 337Z" />
<glyph unicode="&#xbe;" glyph-name="threequarters" horiz-adv-x="901" d="M319 715T354 691T390 626Q390 616 389 611Q377 548 302 535L301 531Q336 523 352 507T368 465Q368 412 320 381T193 349Q108 349 72 376T35 457L36 473H170Q168 453 175 446T197 438Q215
438 226 449T237 482Q237 510 200 510H162L169 555H201Q243 555 250 594Q252 609 246 617T225 626Q195 626 184 588H62Q74 642 121 678T255 715Q319 715 354 691ZM796 709L307 0H140L628 709H796ZM833 63H793L782 0H654L665 63H469L481 130L655 352H844L806 134H846L833
63ZM710 280L603 134H685L710 280Z" />
<glyph unicode="&#xbf;" glyph-name="questiondown" horiz-adv-x="520" d="M99 -194T46 -151T-8 -25Q-8 0 -4 21Q13 115 85 167T259 222L275 311H436L400 112H333Q261 112 217 92T164 22Q163 16 163 5Q163 -23 179 -38T224 -54Q260 -54 282 -33T312 22H474Q464
-39 429 -88T333 -165T193 -194Q99 -194 46 -151ZM280 393L310 564H487L457 393H280Z" />
<glyph unicode="&#xc0;" glyph-name="Agrave" horiz-adv-x="730" d="M460 129H195L128 0H-53L330 702H527L662 0H481L460 129ZM439 259L396 519L262 259H439ZM548 863L528 747L305 850L328 979L548 863Z" />
<glyph unicode="&#xc1;" glyph-name="Aacute" horiz-adv-x="730" d="M460 129H195L128 0H-53L330 702H527L662 0H481L460 129ZM439 259L396 519L262 259H439ZM592 850L333 747L353 863L615 979L592 850Z" />
<glyph unicode="&#xc2;" glyph-name="Acircumflex" horiz-adv-x="730" d="M463 129H198L131 0H-50L333 702H530L665 0H484L463 129ZM442 259L399 519L265 259H442ZM454 834L283 748L303 861L473 945L613 861L593 748L454 834Z" />
<glyph unicode="&#xc3;" glyph-name="Atilde" horiz-adv-x="730" d="M466 129H201L134 0H-47L336 702H533L668 0H487L466 129ZM445 259L402 519L268 259H445ZM430 908T446 901T483 881Q502 870 511 866T533 861Q571 861 586 908H672Q623 760 510 760Q487 760 470
767T433 787Q416 797 406 801T383 806Q347 806 330 759H245Q296 908 407 908Q430 908 446 901Z" />
<glyph unicode="&#xc4;" glyph-name="Adieresis" horiz-adv-x="730" d="M465 129H200L133 0H-48L335 702H532L667 0H486L465 129ZM444 259L401 519L267 259H444ZM290 873T314 894T368 915Q396 915 412 899T429 857Q429 822 404 797T343 771Q316 771 300 787T283
829Q283 838 284 842Q290 873 314 894ZM486 864T511 889T570 915Q598 915 614 899T631 857Q631 822 606 797T545 771Q519 771 503 787T486 828Q486 864 511 889Z" />
<glyph unicode="&#xc5;" glyph-name="Aring" horiz-adv-x="730" d="M459 129H194L127 0H-54L329 702H526L661 0H480L459 129ZM438 259L395 519L261 259H438ZM517 991T546 965T575 893Q575 887 573 869Q564 814 523 781T430 748Q385 748 357 774T328 844Q328 851
330 869Q339 925 379 958T472 991Q517 991 546 965ZM435 922T417 904T398 858Q398 839 410 828T442 816Q467 816 485 834T504 881Q504 900 492 911T460 922Q435 922 417 904Z" />
<glyph unicode="&#xc6;" glyph-name="AE" horiz-adv-x="949" d="M688 571L662 426H893L871 296H640L612 137H873L849 0H416L437 121H210L127 0H-60L427 707H973L949 571H688ZM460 251L516 570L298 251H460Z" />
<glyph unicode="&#xc7;" glyph-name="Ccedilla" horiz-adv-x="757" d="M591 714T667 643T747 451H567Q556 500 520 528T425 556Q351 556 295 501T223 354Q218 324 218 303Q218 233 255 193T355 153Q412 153 458 181T533 257H714Q666 137 565 66T330 -6Q240 -6
175 29T76 127T42 275Q42 316 49 354Q67 459 124 541T267 668T456 714Q591 714 667 643ZM425 -41T458 -63T492 -133Q492 -140 490 -156Q480 -214 435 -240T331 -267H185L201 -177H329Q370 -177 375 -151Q378 -138 369 -130T339 -122H266L289 7H390L381 -43Q425
-41 458 -63Z" />
<glyph unicode="&#xc8;" glyph-name="Egrave" horiz-adv-x="537" d="M517 571L492 423H730L707 294H468L441 137H710L686 0H246L370 707H810L786 571H517ZM454 863L434 747L211 850L234 979L454 863Z" />
<glyph unicode="&#xc9;" glyph-name="Eacute" horiz-adv-x="537" d="M517 571L492 423H730L707 294H468L441 137H710L686 0H246L370 707H810L786 571H517ZM500 850L241 747L261 863L523 979L500 850Z" />
<glyph unicode="&#xca;" glyph-name="Ecircumflex" horiz-adv-x="537" d="M521 571L496 423H734L711 294H472L445 137H714L690 0H250L374 707H814L790 571H521ZM360 834L189 748L209 861L379 945L519 861L499 748L360 834Z" />
<glyph unicode="&#xcb;" glyph-name="Edieresis" horiz-adv-x="536" d="M523 571L498 423H736L713 294H474L447 137H716L692 0H252L376 707H816L792 571H523ZM197 873T221 894T275 915Q303 915 319 899T336 857Q336 822 311 797T250 771Q223 771 207 787T190 829Q190
838 191 842Q197 873 221 894ZM393 864T418 889T477 915Q505 915 521 899T538 857Q538 822 513 797T452 771Q426 771 410 787T393 828Q393 864 418 889Z" />
<glyph unicode="&#xcc;" glyph-name="Igrave" horiz-adv-x="288" d="M293 707L169 0H-2L122 707H293ZM327 863L307 747L84 850L107 979L327 863Z" />
<glyph unicode="&#xcd;" glyph-name="Iacute" horiz-adv-x="288" d="M293 707L169 0H-2L122 707H293ZM372 850L113 747L133 863L395 979L372 850Z" />
<glyph unicode="&#xce;" glyph-name="Icircumflex" horiz-adv-x="289" d="M296 707L172 0H1L125 707H296ZM234 834L63 748L83 861L253 945L393 861L373 748L234 834Z" />
<glyph unicode="&#xcf;" glyph-name="Idieresis" horiz-adv-x="289" d="M298 707L174 0H3L127 707H298ZM71 873T95 894T149 915Q177 915 193 899T210 857Q210 822 185 797T124 771Q97 771 81 787T64 829Q64 838 65 842Q71 873 95 894ZM267 864T292 889T351 915Q379
915 395 899T412 857Q412 822 387 797T326 771Q300 771 284 787T267 828Q267 864 292 889Z" />
<glyph unicode="&#xd0;" glyph-name="Eth" horiz-adv-x="743" d="M497 707T568 673T675 577T712 430Q712 391 705 355Q687 251 629 171T479 45T274 0H7L57 287H-9L15 423H81L131 707H398Q497 707 568 673ZM537 383T537 403Q537 477 490 517T357 557H276L252 423H409L384
287H229L205 153H286Q385 153 450 206T532 355Q537 383 537 403Z" />
<glyph unicode="&#xd1;" glyph-name="Ntilde" horiz-adv-x="746" d="M625 0H454L244 434L168 0H-3L121 707H292L501 269L578 707H749L625 0ZM430 908T446 901T483 881Q502 870 511 866T533 861Q571 861 586 908H672Q623 760 510 760Q487 760 470 767T433 787Q416
797 406 801T383 806Q347 806 330 759H245Q296 908 407 908Q430 908 446 901Z" />
<glyph unicode="&#xd2;" glyph-name="Ograve" horiz-adv-x="777" d="M778 718T849 680T958 572T996 411Q996 372 988 326Q971 228 918 153T782 35T598 -7Q499 -7 428 31T319 138T281 299Q281 338 289 386Q306 483 360 558T496 676T681 718Q778 718 849 680ZM587
559T530 507T456 363Q451 333 451 313Q451 238 493 196T611 153Q691 153 748 206T822 348Q826 372 826 399Q826 474 785 516T668 559Q587 559 530 507ZM571 863L551 747L328 850L351 979L571 863Z" />
<glyph unicode="&#xd3;" glyph-name="Oacute" horiz-adv-x="777" d="M772 718T843 680T952 572T990 411Q990 372 982 326Q965 228 912 153T776 35T592 -7Q493 -7 422 31T313 138T275 299Q275 338 283 386Q300 483 354 558T490 676T675 718Q772 718 843 680ZM581
559T524 507T450 363Q445 333 445 313Q445 238 487 196T605 153Q685 153 742 206T816 348Q820 372 820 399Q820 474 779 516T662 559Q581 559 524 507ZM610 850L351 747L371 863L633 979L610 850Z" />
<glyph unicode="&#xd4;" glyph-name="Ocircumflex" horiz-adv-x="777" d="M776 718T847 680T956 572T994 411Q994 372 986 326Q969 228 916 153T780 35T596 -7Q497 -7 426 31T317 138T279 299Q279 338 287 386Q304 483 358 558T494 676T679 718Q776 718 847 680ZM585
559T528 507T454 363Q449 333 449 313Q449 238 491 196T609 153Q689 153 746 206T820 348Q824 372 824 399Q824 474 783 516T666 559Q585 559 528 507ZM471 834L300 748L320 861L490 945L630 861L610 748L471 834Z" />
<glyph unicode="&#xd5;" glyph-name="Otilde" horiz-adv-x="777" d="M779 718T850 680T959 572T997 411Q997 372 989 326Q972 228 919 153T783 35T599 -7Q500 -7 429 31T320 138T282 299Q282 338 290 386Q307 483 361 558T497 676T682 718Q779 718 850 680ZM588
559T531 507T457 363Q452 333 452 313Q452 238 494 196T612 153Q692 153 749 206T823 348Q827 372 827 399Q827 474 786 516T669 559Q588 559 531 507ZM447 908T463 901T500 881Q519 870 528 866T550 861Q588 861 603 908H689Q640 760 527 760Q504 760 487 767T450
787Q433 797 423 801T400 806Q364 806 347 759H262Q313 908 424 908Q447 908 463 901Z" />
<glyph unicode="&#xd6;" glyph-name="Odieresis" horiz-adv-x="777" d="M778 718T849 680T958 572T996 411Q996 372 988 326Q971 228 918 153T782 35T598 -7Q499 -7 428 31T319 138T281 299Q281 338 289 386Q306 483 360 558T496 676T681 718Q778 718 849 680ZM587
559T530 507T456 363Q451 333 451 313Q451 238 493 196T611 153Q691 153 748 206T822 348Q826 372 826 399Q826 474 785 516T668 559Q587 559 530 507ZM308 873T332 894T386 915Q414 915 430 899T447 857Q447 822 422 797T361 771Q334 771 318 787T301 829Q301
838 302 842Q308 873 332 894ZM504 864T529 889T588 915Q616 915 632 899T649 857Q649 822 624 797T563 771Q537 771 521 787T504 828Q504 864 529 889Z" />
<glyph unicode="&#xd7;" glyph-name="multiply" horiz-adv-x="553" d="M395 358L511 217L378 105L262 245L100 106L8 216L171 355L60 490L193 603L304 469L460 602L552 493L395 358Z" />
<glyph unicode="&#xd8;" glyph-name="Oslash" horiz-adv-x="789" d="M695 592Q745 515 745 411Q745 372 737 326Q720 228 667 153T531 35T347 -7Q211 -7 127 64L59 1H-34L84 111Q30 186 30 298Q30 345 38 386Q55 483 109 558T245 676T430 718Q500 718 557 698T654
640L730 710H822L695 592ZM200 333T200 312Q200 270 216 233L528 522Q486 559 417 559Q336 559 279 507T205 363Q200 333 200 312ZM575 372T575 398Q575 439 563 470L256 184Q296 153 360 153Q440 153 497 206T571 348Q575 372 575 398Z" />
<glyph unicode="&#xd9;" glyph-name="Ugrave" horiz-adv-x="697" d="M538 707L467 299Q463 278 463 254Q463 206 488 181T563 155Q624 155 662 192T713 299L784 707H955L883 299Q866 199 815 131T690 28T531 -7Q420 -7 355 51T289 221Q289 260 296 299L368 707H538ZM523
863L503 747L280 850L303 979L523 863Z" />
<glyph unicode="&#xda;" glyph-name="Uacute" horiz-adv-x="697" d="M538 707L467 299Q463 278 463 254Q463 206 488 181T563 155Q624 155 662 192T713 299L784 707H955L883 299Q866 199 815 131T690 28T531 -7Q420 -7 355 51T289 221Q289 260 296 299L368 707H538ZM569
850L310 747L330 863L592 979L569 850Z" />
<glyph unicode="&#xdb;" glyph-name="Ucircumflex" horiz-adv-x="697" d="M542 707L471 299Q467 278 467 254Q467 206 492 181T567 155Q628 155 666 192T717 299L788 707H959L887 299Q870 199 819 131T694 28T535 -7Q424 -7 359 51T293 221Q293 260 300 299L372
707H542ZM430 834L259 748L279 861L449 945L589 861L569 748L430 834Z" />
<glyph unicode="&#xdc;" glyph-name="Udieresis" horiz-adv-x="697" d="M288 707L217 299Q213 278 213 254Q213 206 238 181T313 155Q374 155 412 192T463 299L534 707H705L633 299Q616 199 565 131T440 28T281 -7Q170 -7 105 51T39 221Q39 260 46 299L118 707H288ZM267
873T291 894T345 915Q373 915 389 899T406 857Q406 822 381 797T320 771Q293 771 277 787T260 829Q260 838 261 842Q267 873 291 894ZM463 864T488 889T547 915Q575 915 591 899T608 857Q608 822 583 797T522 771Q496 771 480 787T463 828Q463 864 488 889Z" />
<glyph unicode="&#xdd;" glyph-name="Yacute" horiz-adv-x="677" d="M981 707L652 235L612 0H440L481 235L319 707H515L601 419L787 707H981ZM560 850L301 747L321 863L583 979L560 850Z" />
<glyph unicode="&#xde;" glyph-name="Thorn" horiz-adv-x="619" d="M192 134L168 0H-3L121 707H291L268 578H375Q486 578 542 531T598 402Q598 377 594 354Q577 256 499 195T297 134H192ZM355 263T383 286T420 354Q422 363 422 379Q422 447 334 447H247L215 263H301Q355
263 383 286Z" />
<glyph unicode="&#xdf;" glyph-name="germandbls" horiz-adv-x="719" d="M622 364T652 318T682 212Q682 191 677 159Q664 86 605 39T454 -8Q358 -8 304 41T250 177Q250 196 251 205H391Q389 174 403 158T446 141Q479 141 496 162T513 210Q513 229 501 245T459
282L324 377L336 435L358 447Q414 476 414 531Q414 559 398 575T350 591Q311 591 285 569T252 504L165 0H-7L84 510Q104 625 183 687T391 750Q492 750 547 708T602 599Q602 552 572 513T487 448L561 401Q622 364 652 318Z" />
<glyph unicode="&#xe0;" glyph-name="agrave" horiz-adv-x="679" d="M387 565T430 536T486 457L504 558H675L576 0H405L424 101Q394 51 343 22T226 -7Q135 -7 82 51T29 214Q29 255 36 294Q51 377 92 438T193 532T320 565Q387 565 430 536ZM302 415T262 379T210
279Q207 261 207 246Q207 197 234 170T308 143Q362 143 403 180T455 279Q458 296 458 311Q458 360 431 387T357 415Q302 415 262 379ZM484 714L464 598L241 701L264 830L484 714Z" />
<glyph unicode="&#xe1;" glyph-name="aacute" horiz-adv-x="679" d="M387 565T430 536T486 457L504 558H675L576 0H405L424 101Q394 51 343 22T226 -7Q135 -7 82 51T29 214Q29 255 36 294Q51 377 92 438T193 532T320 565Q387 565 430 536ZM302 415T262 379T210
279Q207 261 207 246Q207 197 234 170T308 143Q362 143 403 180T455 279Q458 296 458 311Q458 360 431 387T357 415Q302 415 262 379ZM529 701L270 598L290 714L552 830L529 701Z" />
<glyph unicode="&#xe2;" glyph-name="acircumflex" horiz-adv-x="679" d="M631 565T674 536T730 457L748 558H919L820 0H649L668 101Q638 51 587 22T470 -7Q379 -7 326 51T273 214Q273 255 280 294Q295 377 336 438T437 532T564 565Q631 565 674 536ZM546 415T506
379T454 279Q451 261 451 246Q451 197 478 170T552 143Q606 143 647 180T699 279Q702 296 702 311Q702 360 675 387T601 415Q546 415 506 379ZM376 685L205 599L225 712L395 796L535 712L515 599L376 685Z" />
<glyph unicode="&#xe3;" glyph-name="atilde" horiz-adv-x="679" d="M393 565T436 536T492 457L510 558H681L582 0H411L430 101Q400 51 349 22T232 -7Q141 -7 88 51T35 214Q35 255 42 294Q57 377 98 438T199 532T326 565Q393 565 436 536ZM308 415T268 379T216
279Q213 261 213 246Q213 197 240 170T314 143Q368 143 409 180T461 279Q464 296 464 311Q464 360 437 387T363 415Q308 415 268 379ZM366 759T382 752T419 732Q438 721 447 717T469 712Q507 712 522 759H608Q559 611 446 611Q423 611 406 618T369 638Q352 648
342 652T319 657Q283 657 266 610H181Q232 759 343 759Q366 759 382 752Z" />
<glyph unicode="&#xe4;" glyph-name="adieresis" horiz-adv-x="679" d="M392 565T435 536T491 457L509 558H680L581 0H410L429 101Q399 51 348 22T231 -7Q140 -7 87 51T34 214Q34 255 41 294Q56 377 97 438T198 532T325 565Q392 565 435 536ZM307 415T267 379T215
279Q212 261 212 246Q212 197 239 170T313 143Q367 143 408 180T460 279Q463 296 463 311Q463 360 436 387T362 415Q307 415 267 379ZM227 724T251 745T305 766Q333 766 349 750T366 708Q366 673 341 648T280 622Q253 622 237 638T220 680Q220 689 221 693Q227
724 251 745ZM423 715T448 740T507 766Q535 766 551 750T568 708Q568 673 543 648T482 622Q456 622 440 638T423 679Q423 715 448 740Z" />
<glyph unicode="&#xe5;" glyph-name="aring" horiz-adv-x="679" d="M627 565T670 536T726 457L744 558H915L816 0H645L664 101Q634 51 583 22T466 -7Q375 -7 322 51T269 214Q269 255 276 294Q291 377 332 438T433 532T560 565Q627 565 670 536ZM542 415T502 379T450
279Q447 261 447 246Q447 197 474 170T548 143Q602 143 643 180T695 279Q698 296 698 311Q698 360 671 387T597 415Q542 415 502 379ZM439 842T468 816T497 744Q497 738 495 720Q486 665 445 632T352 599Q307 599 279 625T250 695Q250 702 252 720Q261 776 301
809T394 842Q439 842 468 816ZM357 773T339 755T320 709Q320 690 332 679T364 667Q389 667 407 685T426 732Q426 751 414 762T382 773Q357 773 339 755Z" />
<glyph unicode="&#xe6;" glyph-name="ae" horiz-adv-x="1077" d="M947 565T1000 509T1053 358Q1053 327 1047 294Q1043 270 1034 248H619Q618 241 618 229Q618 177 645 153T718 128Q762 128 793 146T840 198H1021Q988 107 916 50T753 -7Q686 -7 643 21T588 102L570
0H399L417 101Q388 52 336 23T220 -7Q131 -7 77 50T23 208Q23 244 30 279Q46 367 88 431T192 530T321 565Q385 565 426 536T480 457L498 558H669L650 457Q680 509 733 537T854 565Q947 565 1000 509ZM881 334T881 346Q881 387 851 408T776 430Q725 430 687 404T632
320H878Q881 334 881 346ZM452 296T452 311Q452 360 424 387T350 415Q295 415 255 379T204 279Q201 261 201 245Q201 196 228 170T302 143Q356 143 396 179T449 279Q452 296 452 311Z" />
<glyph unicode="&#xe7;" glyph-name="ccedilla" horiz-adv-x="615" d="M470 565T534 506T600 342H418Q416 378 395 398T336 418Q291 418 256 383T208 279Q204 259 204 237Q204 189 227 165T288 140Q326 140 354 160T396 216H577Q540 112 457 53T265 -7Q157 -7
93 54T28 224Q28 250 35 294Q50 377 96 438T210 532T359 565Q470 565 534 506ZM351 -41T384 -63T418 -133Q418 -140 416 -156Q406 -214 361 -240T257 -267H111L127 -177H255Q296 -177 301 -151Q304 -138 295 -130T265 -122H192L215 7H316L307 -43Q351 -41 384 -63Z"
/>
<glyph unicode="&#xe8;" glyph-name="egrave" horiz-adv-x="618" d="M723 565T785 507T848 350Q848 327 843 294Q839 270 830 248H443Q441 228 441 221Q441 130 528 130Q565 130 594 149T636 198H817Q784 107 703 50T512 -7Q404 -7 341 53T277 219Q277 251 283
287Q298 372 345 435T461 531T613 565Q723 565 785 507ZM677 337T677 350Q677 390 652 410T589 430Q542 430 506 402T456 320H674Q677 337 677 350ZM461 714L441 598L218 701L241 830L461 714Z" />
<glyph unicode="&#xe9;" glyph-name="eacute" horiz-adv-x="618" d="M723 565T785 507T848 350Q848 327 843 294Q839 270 830 248H443Q441 228 441 221Q441 130 528 130Q565 130 594 149T636 198H817Q784 107 703 50T512 -7Q404 -7 341 53T277 219Q277 251 283
287Q298 372 345 435T461 531T613 565Q723 565 785 507ZM677 337T677 350Q677 390 652 410T589 430Q542 430 506 402T456 320H674Q677 337 677 350ZM507 701L248 598L268 714L530 830L507 701Z" />
<glyph unicode="&#xea;" glyph-name="ecircumflex" horiz-adv-x="618" d="M471 565T533 507T596 350Q596 327 591 294Q587 270 578 248H191Q189 228 189 221Q189 130 276 130Q313 130 342 149T384 198H565Q532 107 451 50T260 -7Q152 -7 89 53T25 219Q25 251 31
287Q46 372 93 435T209 531T361 565Q471 565 533 507ZM425 337T425 350Q425 390 400 410T337 430Q290 430 254 402T204 320H422Q425 337 425 350ZM368 685L197 599L217 712L387 796L527 712L507 599L368 685Z" />
<glyph unicode="&#xeb;" glyph-name="edieresis" horiz-adv-x="618" d="M473 565T535 507T598 350Q598 327 593 294Q589 270 580 248H193Q191 228 191 221Q191 130 278 130Q315 130 344 149T386 198H567Q534 107 453 50T262 -7Q154 -7 91 53T27 219Q27 251 33
287Q48 372 95 435T211 531T363 565Q473 565 535 507ZM427 337T427 350Q427 390 402 410T339 430Q292 430 256 402T206 320H424Q427 337 427 350ZM205 724T229 745T283 766Q311 766 327 750T344 708Q344 673 319 648T258 622Q231 622 215 638T198 680Q198 689 199
693Q205 724 229 745ZM401 715T426 740T485 766Q513 766 529 750T546 708Q546 673 521 648T460 622Q434 622 418 638T401 679Q401 715 426 740Z" />
<glyph unicode="&#xec;" glyph-name="igrave" horiz-adv-x="289" d="M279 558L180 0H9L108 558H279ZM321 714L301 598L78 701L101 830L321 714Z" />
<glyph unicode="&#xed;" glyph-name="iacute" horiz-adv-x="289" d="M279 558L180 0H9L108 558H279ZM367 701L108 598L128 714L390 830L367 701Z" />
<glyph unicode="&#xee;" glyph-name="icircumflex" horiz-adv-x="288" d="M281 558L182 0H11L110 558H281ZM469 685L298 599L318 712L488 796L628 712L608 599L469 685Z" />
<glyph unicode="&#xef;" glyph-name="idieresis" horiz-adv-x="289" d="M284 558L185 0H14L113 558H284ZM321 724T345 745T399 766Q427 766 443 750T460 708Q460 673 435 648T374 622Q347 622 331 638T314 680Q314 689 315 693Q321 724 345 745ZM517 715T542 740T601
766Q629 766 645 750T662 708Q662 673 637 648T576 622Q550 622 534 638T517 679Q517 715 542 740Z" />
<glyph unicode="&#xf0;" glyph-name="eth" horiz-adv-x="636" d="M620 542T620 403Q620 363 612 315Q594 213 544 141T421 31T268 -6Q195 -6 139 22T50 104T18 228Q18 252 23 285Q38 370 85 433T201 530T349 564Q385 564 414 550T460 508Q450 569 422 627L309
594L319 653L394 675Q368 712 339 740H490Q499 730 515 710L609 737L598 678L547 663Q620 542 620 403ZM434 299T434 314Q434 365 407 390T340 416Q290 416 250 383T197 283Q194 265 194 249Q194 197 223 170T295 142Q343 142 381 177T431 279Q434 299 434 314Z"
/>
<glyph unicode="&#xf1;" glyph-name="ntilde" horiz-adv-x="676" d="M546 564T591 518T637 386Q637 357 631 324L573 0H403L456 304Q459 321 459 335Q459 377 435 400T368 423Q317 423 281 390T234 296L182 0H10L108 558H280L262 458Q295 507 347 535T464 564Q546
564 591 518ZM372 759T388 752T425 732Q444 721 453 717T475 712Q513 712 528 759H614Q565 611 452 611Q429 611 412 618T375 638Q358 648 348 652T325 657Q289 657 272 610H187Q238 759 349 759Q372 759 388 752Z" />
<glyph unicode="&#xf2;" glyph-name="ograve" horiz-adv-x="640" d="M444 565T500 537T588 456T620 329Q620 299 614 264Q599 181 551 120T433 26T281 -7Q206 -7 149 21T61 103T29 229Q29 260 35 294Q50 377 98 438T217 532T370 565Q444 565 500 537ZM300 417T261
382T209 279Q205 253 205 242Q205 193 231 168T300 142Q349 142 388 177T440 279Q443 299 443 316Q443 365 417 391T349 417Q300 417 261 382ZM478 714L458 598L235 701L258 830L478 714Z" />
<glyph unicode="&#xf3;" glyph-name="oacute" horiz-adv-x="640" d="M444 565T500 537T588 456T620 329Q620 299 614 264Q599 181 551 120T433 26T281 -7Q206 -7 149 21T61 103T29 229Q29 260 35 294Q50 377 98 438T217 532T370 565Q444 565 500 537ZM300 417T261
382T209 279Q205 253 205 242Q205 193 231 168T300 142Q349 142 388 177T440 279Q443 299 443 316Q443 365 417 391T349 417Q300 417 261 382ZM524 701L265 598L285 714L547 830L524 701Z" />
<glyph unicode="&#xf4;" glyph-name="ocircumflex" horiz-adv-x="640" d="M440 565T496 537T584 456T616 329Q616 299 610 264Q595 181 547 120T429 26T277 -7Q202 -7 145 21T57 103T25 229Q25 260 31 294Q46 377 94 438T213 532T366 565Q440 565 496 537ZM296
417T257 382T205 279Q201 253 201 242Q201 193 227 168T296 142Q345 142 384 177T436 279Q439 299 439 316Q439 365 413 391T345 417Q296 417 257 382ZM378 685L207 599L227 712L397 796L537 712L517 599L378 685Z" />
<glyph unicode="&#xf5;" glyph-name="otilde" horiz-adv-x="640" d="M450 565T506 537T594 456T626 329Q626 299 620 264Q605 181 557 120T439 26T287 -7Q212 -7 155 21T67 103T35 229Q35 260 41 294Q56 377 104 438T223 532T376 565Q450 565 506 537ZM306 417T267
382T215 279Q211 253 211 242Q211 193 237 168T306 142Q355 142 394 177T446 279Q449 299 449 316Q449 365 423 391T355 417Q306 417 267 382ZM361 759T377 752T414 732Q433 721 442 717T464 712Q502 712 517 759H603Q554 611 441 611Q418 611 401 618T364 638Q347
648 337 652T314 657Q278 657 261 610H176Q227 759 338 759Q361 759 377 752Z" />
<glyph unicode="&#xf6;" glyph-name="odieresis" horiz-adv-x="640" d="M449 565T505 537T593 456T625 329Q625 299 619 264Q604 181 556 120T438 26T286 -7Q211 -7 154 21T66 103T34 229Q34 260 40 294Q55 377 103 438T222 532T375 565Q449 565 505 537ZM305
417T266 382T214 279Q210 253 210 242Q210 193 236 168T305 142Q354 142 393 177T445 279Q448 299 448 316Q448 365 422 391T354 417Q305 417 266 382ZM222 724T246 745T300 766Q328 766 344 750T361 708Q361 673 336 648T275 622Q248 622 232 638T215 680Q215
689 216 693Q222 724 246 745ZM418 715T443 740T502 766Q530 766 546 750T563 708Q563 673 538 648T477 622Q451 622 435 638T418 679Q418 715 443 740Z" />
<glyph unicode="&#xf7;" glyph-name="divide" horiz-adv-x="561" d="M424 665L394 494H216L246 665H424ZM549 428L522 273H11L39 428H549ZM343 208L313 36H135L165 208H343Z" />
<glyph unicode="&#xf8;" glyph-name="oslash" horiz-adv-x="628" d="M567 473Q610 412 610 328Q610 299 604 264Q589 181 541 120T423 26T271 -7Q169 -7 100 46L50 0H-33L61 86Q19 144 19 228Q19 260 25 294Q40 377 88 438T207 532T360 565Q462 565 528 513L578
558H660L567 473ZM195 253T195 242Q195 230 199 212L401 396Q376 417 339 417Q290 417 251 382T199 279Q195 253 195 242ZM433 299T433 315Q433 333 430 348L227 162Q253 142 290 142Q339 142 378 177T430 279Q433 299 433 315Z" />
<glyph unicode="&#xf9;" glyph-name="ugrave" horiz-adv-x="673" d="M660 558L562 0H390L408 102Q376 52 323 23T206 -6Q125 -6 80 40T34 172Q34 201 40 234L97 558H268L214 255Q211 239 211 225Q211 182 235 159T302 135Q353 135 389 168T436 262V258L489 558H660ZM491
714L471 598L248 701L271 830L491 714Z" />
<glyph unicode="&#xfa;" glyph-name="uacute" horiz-adv-x="673" d="M660 558L562 0H390L408 102Q376 52 323 23T206 -6Q125 -6 80 40T34 172Q34 201 40 234L97 558H268L214 255Q211 239 211 225Q211 182 235 159T302 135Q353 135 389 168T436 262V258L489 558H660ZM536
701L277 598L297 714L559 830L536 701Z" />
<glyph unicode="&#xfb;" glyph-name="ucircumflex" horiz-adv-x="673" d="M662 558L564 0H392L410 102Q378 52 325 23T208 -6Q127 -6 82 40T36 172Q36 201 42 234L99 558H270L216 255Q213 239 213 225Q213 182 237 159T304 135Q355 135 391 168T438 262V258L491
558H662ZM397 685L226 599L246 712L416 796L556 712L536 599L397 685Z" />
<glyph unicode="&#xfc;" glyph-name="udieresis" horiz-adv-x="673" d="M665 558L567 0H395L413 102Q381 52 328 23T211 -6Q130 -6 85 40T39 172Q39 201 45 234L102 558H273L219 255Q216 239 216 225Q216 182 240 159T307 135Q358 135 394 168T441 262V258L494
558H665ZM234 724T258 745T312 766Q340 766 356 750T373 708Q373 673 348 648T287 622Q260 622 244 638T227 680Q227 689 228 693Q234 724 258 745ZM430 715T455 740T514 766Q542 766 558 750T575 708Q575 673 550 648T489 622Q463 622 447 638T430 679Q430 715
455 740Z" />
<glyph unicode="&#xfd;" glyph-name="yacute" horiz-adv-x="634" d="M471 558L544 216L729 558H919L425 -266H236L419 21L280 558H471ZM546 701L287 598L307 714L569 830L546 701Z" />
<glyph unicode="&#xfe;" glyph-name="thorn" horiz-adv-x="677" d="M541 563T597 502T653 338Q653 313 648 276Q633 186 591 123T488 27T360 -6Q298 -6 257 18T196 90L134 -266H-38L140 740H311L265 477Q333 563 446 563Q541 563 597 502ZM380 143T421 176T474
276Q477 294 477 309Q477 360 448 387T376 414Q326 414 284 379T230 279Q227 263 227 247Q227 196 256 170T329 143Q380 143 421 176Z" />
<glyph unicode="&#xff;" glyph-name="ydieresis" horiz-adv-x="634" d="M226 558L299 216L484 558H674L180 -266H-9L174 21L35 558H226ZM212 724T236 745T290 766Q318 766 334 750T351 708Q351 673 326 648T265 622Q238 622 222 638T205 680Q205 689 206 693Q212
724 236 745ZM408 715T433 740T492 766Q520 766 536 750T553 708Q553 673 528 648T467 622Q441 622 425 638T408 679Q408 715 433 740Z" />
<glyph unicode="&#x2013;" glyph-name="endash" horiz-adv-x="658" d="M619 422L594 280H39L64 422H619Z" />
<glyph unicode="&#x2014;" glyph-name="emdash" horiz-adv-x="893" d="M854 422L829 280H39L64 422H854Z" />
<glyph unicode="&#x2018;" glyph-name="quoteleft" horiz-adv-x="241" d="M37 607T37 632Q37 659 42 691Q54 759 97 800T209 842L198 779Q146 779 133 711L131 696H195L173 572H42Q37 607 37 632Z" />
<glyph unicode="&#x2019;" glyph-name="quoteright" horiz-adv-x="241" d="M205 809T205 783Q205 756 200 724Q187 655 145 614T33 572L45 636Q97 636 109 703L112 719H48L69 842H200Q205 809 205 783Z" />
<glyph unicode="&#x201a;" glyph-name="quotesinglbase" horiz-adv-x="242" d="M439 70T439 27Q439 -25 420 -72T360 -149T257 -179L268 -116Q295 -116 309 -104T330 -58L332 -48H259L286 106H427Q439 70 439 27Z" />
<glyph unicode="&#x201c;" glyph-name="quotedblleft" horiz-adv-x="432" d="M37 607T37 632Q37 659 42 691Q54 759 97 800T209 842L198 779Q146 779 133 711L131 696H195L173 572H42Q37 607 37 632ZM227 607T227 632Q227 659 232 691Q245 759 287 800T399 842L388
779Q336 779 323 711L321 696H384L363 572H232Q227 607 227 632Z" />
<glyph unicode="&#x201d;" glyph-name="quotedblright" horiz-adv-x="432" d="M205 809T205 783Q205 756 200 724Q187 655 145 614T33 572L45 636Q97 636 109 703L112 719H48L69 842H200Q205 809 205 783ZM395 809T395 783Q395 756 390 724Q377 655 335 614T223
572L234 636Q286 636 298 703L301 719H238L259 842H390Q395 809 395 783Z" />
<glyph unicode="&#x201e;" glyph-name="quotedblbase" horiz-adv-x="432" d="M168 90T168 64Q168 37 163 5Q150 -64 108 -105T-4 -147L8 -83Q60 -83 72 -16L75 0H11L32 123H163Q168 90 168 64ZM358 90T358 64Q358 37 353 5Q340 -64 298 -105T186 -147L197 -83Q249
-83 261 -16L264 0H201L222 123H353Q358 90 358 64Z" />
<glyph unicode="&#x<?php print date("Y") ?>;" glyph-name="bullet" horiz-adv-x="466" d="M80 352T105 394T172 460T260 485Q316 485 351 450T386 361Q386 314 361 273T294 208T206 184Q151 184 116 218T80 304Q80 352 105 394Z" />
<glyph unicode="&#x2039;" glyph-name="guilsinglleft" horiz-adv-x="337" d="M99 120L45 295L161 470H318L201 295L256 120H99Z" />
<glyph unicode="&#x203a;" glyph-name="guilsinglright" horiz-adv-x="337" d="M138 295L81 470H240L292 295L178 120H19L138 295Z" />
</font>
</defs>
</svg>
