<?xml version="1.0" standalone="no"?>
<!DOCTYPE svg PUBLIC "-//W3C//DTD SVG 1.1//EN" "http://www.w3.org/Graphics/SVG/1.1/DTD/svg11.dtd">
<svg xmlns="http://www.w3.org/2000/svg">
<defs >
<font id="Poppins" horiz-adv-x="855" ><font-face
    font-family="Poppins Light"
    units-per-em="1000"
    panose-1="0 0 4 0 0 0 0 0 0 0"
    ascent="1050"
    descent="-350"
    alphabetic="0" />
<glyph unicode=" " glyph-name="space" horiz-adv-x="260" />
<glyph unicode="!" glyph-name="exclam" horiz-adv-x="277" d="M179 717L168 196H112L101 717H179ZM188 90V0H95V90H188Z" />
<glyph unicode="&quot;" glyph-name="quotedbl" horiz-adv-x="270" d="M108 796L100 603H51L41 796H108ZM228 796L220 603H171L161 796H228Z" />
<glyph unicode="#" glyph-name="numbersign" horiz-adv-x="791" d="M597 454L560 281H704V217H546L500 0H433L479 217H256L210 0H144L190 217H33V281H204L241 454H87V518H255L302 740H368L321 518H544L591 740H658L611 518H758V454H597ZM530 454H307L270 281H493L530
454Z" />
<glyph unicode="$" glyph-name="dollar" horiz-adv-x="568" d="M371 365T413 346T485 286T516 179Q516 131 493 89T422 20T302 -7H297V-87H270V-6Q178 3 120 55T55 184H129Q134 139 170 99T270 51V331Q197 353 155 371T83 428T53 533Q53 586 79 626T153 690T268
713H270V800H297V712Q386 705 438 657T501 542H426Q418 582 386 615T297 656V387Q371 365 413 346ZM127 477T163 448T270 395V658H268Q203 658 165 626T127 536Q127 477 163 448ZM368 49T405 85T442 178Q442 238 405 269T297 322V49H300Q368 49 405 85Z" />
<glyph unicode="%" glyph-name="percent" horiz-adv-x="621" d="M237 714T276 675T316 572Q316 508 277 469T176 430Q114 430 75 469T35 572Q35 636 74 675T176 714Q237 714 276 675ZM551 706L140 0H70L480 706H551ZM86 529T110 503T175 476Q215 476 240 502T265
572Q265 614 240 641T175 668Q135 668 111 641T86 572Q86 529 110 503ZM507 276T546 237T586 134Q586 70 547 31T446 -9Q385 -9 346 30T306 134Q306 198 345 237T446 276Q507 276 546 237ZM357 91T381 64T446 37Q485 37 510 64T535 134Q535 176 510 203T446 230Q406
230 382 203T357 134Q357 91 381 64Z" />
<glyph unicode="&amp;" glyph-name="ampersand" horiz-adv-x="679" d="M598 0L424 191Q425 186 425 177Q425 163 422 145Q414 78 365 36T244 -7Q185 -7 138 18T63 91T36 200Q36 262 60 307T125 375T215 398Q234 398 254 393Q235 415 234 416Q202 452 186 483T170
559Q170 599 190 634T249 690T343 712Q429 712 473 668T523 557Q528 533 526 507H459Q460 513 460 522Q460 532 459 536Q459 591 429 622T344 653Q294 653 266 624T237 553Q237 518 250 494T290 438L672 0H598ZM305 54T343 92T382 191Q382 233 360 268T303 322T229
342Q172 342 136 306T99 202Q99 134 141 94T244 54Q305 54 343 92Z" />
<glyph unicode="&apos;" glyph-name="quotesingle" horiz-adv-x="156" d="M114 796L103 603H54L41 796H114Z" />
<glyph unicode="(" glyph-name="parenleft" horiz-adv-x="375" d="M49 596T121 746T311 989H379V981Q247 874 182 728T117 403Q117 224 182 78T379 -176V-183H311Q193 -91 121 59T49 403Q49 596 121 746Z" />
<glyph unicode=")" glyph-name="parenright" horiz-adv-x="376" d="M327 209T255 59T65 -183H-4V-176Q129 -69 194 77T259 403Q259 582 194 728T-4 981V989H65Q183 897 255 747T327 403Q327 209 255 59Z" />
<glyph unicode="*" glyph-name="asterisk" horiz-adv-x="462" d="M378 667L414 603L265 546L414 490L378 426L254 518L273 360H200L216 518L89 423L51 489L198 546L52 604L89 669L215 576L199 732H272L254 576L378 667Z" />
<glyph unicode="+" glyph-name="plus" horiz-adv-x="580" d="M545 338H324V115H255V338H35V402H255V625H324V402H545V338Z" />
<glyph unicode="," glyph-name="comma" horiz-adv-x="159" d="M125 22T125 -12Q125 -60 102 -88T33 -117V-84Q57 -84 68 -71T79 -29V-21H34V56H115Q125 22 125 -12Z" />
<glyph unicode="-" glyph-name="hyphen" horiz-adv-x="477" d="M625 400V341H235V400H625Z" />
<glyph unicode="." glyph-name="period" horiz-adv-x="154" d="M123 90V0H30V90H123Z" />
<glyph unicode="/" glyph-name="slash" horiz-adv-x="369" d="M357 940L82 -167H14L288 940H357Z" />
<glyph unicode="0" glyph-name="zero" horiz-adv-x="607" d="M61 185T114 91T304 -4Q439 -4 493 90T547 356Q547 526 493 620T304 714Q168 714 115 620T61 356Q61 185 114 91ZM477 263T464 200T412 99T304 62Q233 62 195 99T144 199T130 356Q130 448 143 511T195
611T304 648Q374 648 412 611T463 511T477 356Q477 263 464 200Z" />
<glyph unicode="1" glyph-name="one" horiz-adv-x="269" d="M14 640V705H193V0H120V640H14Z" />
<glyph unicode="2" glyph-name="two" horiz-adv-x="567" d="M222 170T327 288T433 509Q433 574 399 614T289 655Q211 655 171 607T125 475H56Q63 590 127 652T294 715Q388 715 446 664T504 515Q504 432 449 346T312 186T145 61H524V3H45V53Q222 170 327 288Z" />
<glyph unicode="3" glyph-name="three" horiz-adv-x="585" d="M366 720T413 697T484 632T509 539Q509 473 470 427T351 373V367Q431 347 476 305T522 187Q522 101 466 47T301 -7Q194 -7 128 48T49 210H118Q129 139 175 97T299 54Q374 54 413 92T453 191Q453 263
397 300T237 338H215V397H237Q440 397 440 532Q440 591 402 626T297 661Q231 661 185 624T130 513H61Q69 611 131 665T299 720Q366 720 413 697Z" />
<glyph unicode="4" glyph-name="four" horiz-adv-x="607" d="M28 170V228L400 708H475V232H585V170H475V0H404V170H28ZM409 621L103 232H409V621Z" />
<glyph unicode="5" glyph-name="five" horiz-adv-x="609" d="M523 649H149V388Q176 424 226 446T334 468Q447 468 502 403T558 240Q558 133 498 64T320 -5Q217 -5 152 51T76 203H145Q158 133 203 95T316 57Q402 57 445 107T489 241Q489 321 445 366T319 411Q262
411 219 387T152 321H84V711H523V649Z" />
<glyph unicode="6" glyph-name="six" horiz-adv-x="619" d="M461 587T423 624T318 662Q226 662 178 592T129 369Q129 340 130 325Q144 391 201 429T336 468Q443 468 503 405T563 228Q563 163 538 110T460 25T328 -7Q177 -7 122 87T66 344Q66 529 126 624T322 720Q419
720 473 665T537 519H470Q461 587 423 624ZM138 194T158 151T220 81T326 54Q403 54 449 100T496 229Q496 318 450 365T322 412Q276 412 234 393T165 337T138 244Q138 194 158 151Z" />
<glyph unicode="7" glyph-name="seven" horiz-adv-x="505" d="M472 653L201 0H127L401 646H13V707H472V653Z" />
<glyph unicode="8" glyph-name="eight" horiz-adv-x="620" d="M72 590T100 632T182 698T310 722Q385 722 438 698T520 632T548 537Q548 477 515 434T412 372Q485 355 526 308T567 189Q567 91 498 35T310 -22Q193 -22 123 34T53 189Q53 260 94 307T208 372Q139
390 106 433T72 537Q72 590 100 632ZM142 463T187 428T310 392Q388 392 433 427T478 528Q478 593 433 628T310 664Q234 664 188 629T142 528Q142 463 187 428ZM122 119T173 78T310 37Q396 37 447 78T498 192Q498 267 445 304T310 342Q228 342 175 305T122 192Q122
119 173 78Z" />
<glyph unicode="9" glyph-name="nine" horiz-adv-x="610" d="M155 125T193 88T298 50Q392 50 439 120T487 346Q487 373 486 387Q472 322 415 283T279 244Q173 244 113 308T53 485Q53 550 78 603T155 687T287 719Q438 719 494 626T550 371Q550 187 492 90T298 -8Q200
-8 144 47T79 194H145Q155 125 193 88ZM477 547T430 602T289 658Q212 658 166 612T119 484Q119 395 165 348T293 300Q339 300 381 318T450 375T477 468Q477 547 430 602Z" />
<glyph unicode=":" glyph-name="colon" horiz-adv-x="168" d="M131 528V438H39V528H131ZM131 90V0H39V90H131Z" />
<glyph unicode=";" glyph-name="semicolon" horiz-adv-x="213" d="M166 527V437H73V527H166ZM165 22T165 -12Q165 -60 142 -88T73 -117V-84Q97 -84 108 -71T119 -29V-21H74V56H155Q165 22 165 -12Z" />
<glyph unicode="&lt;" glyph-name="less" horiz-adv-x="410" d="M287 139L35 370L287 603H375L123 370L375 139H287Z" />
<glyph unicode="=" glyph-name="equal" horiz-adv-x="580" d="M545 504V440H35V504H545ZM545 301V237H35V301H545Z" />
<glyph unicode="&gt;" glyph-name="greater" horiz-adv-x="410" d="M35 603H123L375 370L123 139H35L287 370L35 603Z" />
<glyph unicode="?" glyph-name="question" horiz-adv-x="496" d="M346 727T403 674T461 527Q461 418 395 366T212 312V186H145V361H178Q274 361 333 396T392 527Q392 593 353 630T248 668Q179 668 137 630T95 529H28Q27 588 55 633T134 702T250 727Q346 727 403
674ZM225 90V0H133V90H225Z" />
<glyph unicode="@" glyph-name="at" horiz-adv-x="1106" d="M747 780T851 724T1009 568T1063 333Q1063 236 1032 158T948 34T832 -11Q780 -11 750 14T719 95Q719 111 722 130Q647 -11 501 -11Q438 -11 389 20T313 106T286 234Q286 325 324 399T428 515T575 557Q649
557 701 527T779 445T806 328Q806 301 802 278L778 134Q776 116 776 109Q776 77 791 64T836 51Q878 51 913 84T970 181T992 331Q992 448 946 535T810 672T590 721Q444 721 337 657T174 481T118 232Q118 23 233 -83T555 -192L542 -251Q309 -247 179 -124T48 232Q48
384 115 509T308 707T599 780Q747 780 851 724ZM736 396T692 445T565 494Q504 494 456 462T381 372T354 242Q354 158 399 105T521 51Q580 51 629 83T707 176T736 315Q736 396 692 445Z" />
<glyph unicode="A" glyph-name="A" horiz-adv-x="644" d="M483 172H162L98 0H23L283 689H362L622 0H546L483 172ZM462 228L323 608L182 228H462Z" />
<glyph unicode="B" glyph-name="B" horiz-adv-x="591" d="M465 352T506 304T547 190Q547 105 489 53T321 0H76V705H318Q424 705 477 658T531 530Q531 461 494 420T399 365Q465 352 506 304ZM147 390H309Q383 390 421 424T460 519Q460 578 422 612T305 646H147V390ZM388
60T432 96T476 198Q476 262 431 299T307 337H147V60H309Q388 60 432 96Z" />
<glyph unicode="C" glyph-name="C" horiz-adv-x="765" d="M513 712T596 651T713 481H639Q611 557 546 602T385 647Q312 647 253 611T159 508T125 352Q125 263 159 197T252 94T385 58Q481 58 546 103T639 224H713Q679 116 596 55T386 -7Q289 -7 213 39T95 166T53
352Q53 457 95 539T213 666T386 712Q513 712 596 651Z" />
<glyph unicode="D" glyph-name="D" horiz-adv-x="712" d="M660 244T617 165T491 43T289 0H76V705H289Q467 705 563 612T660 353Q660 244 617 165ZM433 63T511 139T589 353Q589 490 511 566T284 643H147V63H284Q433 63 511 139Z" />
<glyph unicode="E" glyph-name="E" horiz-adv-x="498" d="M147 648V382H422V327H147V58H452V0H76V705H452V648H147Z" />
<glyph unicode="F" glyph-name="F" horiz-adv-x="496" d="M459 705V648H147V379H417V324H147V0H76V705H459Z" />
<glyph unicode="G" glyph-name="G" horiz-adv-x="782" d="M514 711T597 651T711 488H638Q611 559 547 603T394 647Q318 647 257 611T160 508T125 352Q125 261 160 194T258 91T401 55Q472 55 531 86T626 178T669 319H376V372H730V310Q723 220 680 148T563 35T395
-7Q295 -7 217 38T96 166T53 352Q53 456 96 538T216 665T394 711Q514 711 597 651Z" />
<glyph unicode="H" glyph-name="H" horiz-adv-x="676" d="M599 705V0H529V334H147V0H76V705H147V392H529V705H599Z" />
<glyph unicode="I" glyph-name="I" horiz-adv-x="223" d="M147 705V0H76V705H147Z" />
<glyph unicode="J" glyph-name="J" horiz-adv-x="467" d="M396 705V170Q396 90 349 42T218 -7Q127 -7 76 47T25 198H95Q95 134 124 96T215 57Q274 57 299 89T325 170V705H396Z" />
<glyph unicode="K" glyph-name="K" horiz-adv-x="559" d="M209 354L542 0H455L147 331V0H76V705H147V374L455 705H542L209 354Z" />
<glyph unicode="L" glyph-name="L" horiz-adv-x="423" d="M147 56H403V0H76V705H147V56Z" />
<glyph unicode="M" glyph-name="M" horiz-adv-x="836" d="M759 690V0H689V578L450 0H387L147 576V0H76V690H159L419 87L677 690H759Z" />
<glyph unicode="N" glyph-name="N" horiz-adv-x="680" d="M604 0H533L147 589V0H76V704H147L533 114V704H604V0Z" />
<glyph unicode="O" glyph-name="O" horiz-adv-x="791" d="M494 713T572 667T694 539T739 353Q739 249 695 167T572 38T396 -8Q298 -8 220 38T98 166T53 353Q53 457 97 539T220 667T396 713Q494 713 572 667ZM319 648T258 612T161 509T125 353Q125 264 160 197T257
94T396 58Q473 58 534 94T631 197T667 353Q667 442 632 509T535 612T396 648Q319 648 258 612Z" />
<glyph unicode="P" glyph-name="P" horiz-adv-x="558" d="M147 294V0H76V705H287Q406 705 464 650T523 499Q523 401 463 348T287 294H147ZM372 354T412 391T452 499Q452 571 412 608T281 646H147V354H281Q372 354 412 391Z" />
<glyph unicode="Q" glyph-name="Q" horiz-adv-x="791" d="M660 -141L502 7Q453 -8 396 -8Q298 -8 220 38T98 166T53 353Q53 457 97 539T220 667T396 713Q494 713 572 667T694 539T739 353Q739 245 691 161T561 32L752 -141H660ZM125 264T160 197T257 94T396 58Q473
58 534 94T631 197T667 353Q667 442 632 509T535 612T396 648Q319 648 258 612T161 509T125 353Q125 264 160 197Z" />
<glyph unicode="R" glyph-name="R" horiz-adv-x="569" d="M454 0L261 294H147V0H76V705H292Q411 705 469 649T528 498Q528 410 479 358T335 296L534 0H454ZM147 347H287Q457 347 457 494Q457 644 287 644H147V347Z" />
<glyph unicode="S" glyph-name="S" horiz-adv-x="558" d="M506 131T484 89T414 20T297 -7Q229 -7 176 18T92 86T55 184H129Q133 153 152 122T207 71T294 50Q361 50 396 86T432 177Q432 224 409 253T351 299T256 334Q190 355 150 374T81 432T53 533Q53 613 109
663T263 713Q363 713 421 664T491 542H416Q407 587 369 622T263 657Q201 657 164 625T127 536Q127 491 150 463T206 420T298 386Q365 365 406 345T477 285T506 179Q506 131 484 89Z" />
<glyph unicode="T" glyph-name="T" horiz-adv-x="507" d="M489 705V648H288V0H218V648H18V705H489Z" />
<glyph unicode="U" glyph-name="U" horiz-adv-x="652" d="M142 705V278Q142 165 191 112T327 59Q413 59 461 112T510 278V705H580V278Q580 135 511 64T326 -7Q210 -7 141 64T72 278V705H142Z" />
<glyph unicode="V" glyph-name="V" horiz-adv-x="655" d="M100 705L327 82L556 705H633L371 0H284L23 705H100Z" />
<glyph unicode="W" glyph-name="W" horiz-adv-x="953" d="M919 705L737 0H653L477 604L300 0H216L34 705H112L259 87L437 705H516L694 86L842 705H919Z" />
<glyph unicode="X" glyph-name="X" horiz-adv-x="566" d="M461 0L277 297L106 0H25L238 359L23 705H106L287 414L458 705H539L325 352L544 0H461Z" />
<glyph unicode="Y" glyph-name="Y" horiz-adv-x="571" d="M549 705L322 275V0H251V275L23 705H104L286 350L468 705H549Z" />
<glyph unicode="Z" glyph-name="Z" horiz-adv-x="523" d="M117 59H484V0H39V56L398 646H49V705H477V648L117 59Z" />
<glyph unicode="[" glyph-name="bracketleft" horiz-adv-x="298" d="M254 940V882H155V-108H254V-166H88V940H254Z" />
<glyph unicode="\" glyph-name="backslash" horiz-adv-x="575" d="M398 -167L73 940H143L467 -167H398Z" />
<glyph unicode="]" glyph-name="bracketright" horiz-adv-x="297" d="M44 -166V-108H143V882H44V940H210V-166H44Z" />
<glyph unicode="^" glyph-name="asciicircum" horiz-adv-x="604" d="M106 171H36L270 690H334L567 171H497L303 605L106 171Z" />
<glyph unicode="_" glyph-name="underscore" horiz-adv-x="591" d="M551 -33V-101H42V-33H551Z" />
<glyph unicode="`" glyph-name="grave" horiz-adv-x="281" d="M238 642V590L33 711V770L238 642Z" />
<glyph unicode="a" glyph-name="a" horiz-adv-x="673" d="M389 553T447 510T528 396V546H597V0H528V150Q506 79 448 36T306 -7Q232 -7 174 27T83 124T50 273Q50 359 82 422T173 519T306 553Q389 553 447 510ZM232 491T177 433T121 273Q121 172 176 114T324 55Q382
55 428 82T501 158T528 273Q528 338 502 387T429 464T324 491Q232 491 177 433Z" />
<glyph unicode="b" glyph-name="b" horiz-adv-x="673" d="M443 553T500 520T590 423T623 273Q623 188 591 125T500 27T368 -7Q284 -7 226 36T146 150V0H76V740H146V396Q168 467 226 510T368 553Q443 553 500 520ZM291 491T245 464T172 388T146 273Q146 208 172
159T244 82T349 55Q442 55 497 113T552 273Q552 374 497 432T349 491Q291 491 245 464Z" />
<glyph unicode="c" glyph-name="c" horiz-adv-x="623" d="M421 553T489 498T573 352H500Q489 417 439 454T316 492Q263 492 219 468T148 395T121 273Q121 201 147 152T218 78T316 54Q389 54 439 91T500 194H573Q558 103 490 48T317 -7Q239 -7 179 26T84 123T50
273Q50 359 84 422T178 519T317 553Q421 553 489 498Z" />
<glyph unicode="d" glyph-name="d" horiz-adv-x="673" d="M389 553T447 510T527 396V740H597V0H527V150Q506 79 448 36T306 -7Q232 -7 174 27T83 124T50 273Q50 359 82 422T173 519T306 553Q389 553 447 510ZM232 491T177 433T121 273Q121 172 176 114T324 55Q382
55 428 82T501 158T528 273Q528 338 502 387T429 464T324 491Q232 491 177 433Z" />
<glyph unicode="e" glyph-name="e" horiz-adv-x="625" d="M388 51T438 88T498 188H572Q557 101 489 47T317 -7Q239 -7 179 26T84 123T50 273Q50 359 84 422T178 519T317 553Q397 553 455 520T544 430T575 308Q575 280 571 257H119Q120 188 147 142T219 73T314
51Q388 51 438 88ZM264 496T220 474T149 407T119 293H505Q509 360 483 406T413 474T317 496Q264 496 220 474Z" />
<glyph unicode="f" glyph-name="f" horiz-adv-x="335" d="M230 692T200 664T169 568V546H306V484H169V0H99V484H18V546H99V573Q99 665 149 711T306 753V691Q230 692 200 664Z" />
<glyph unicode="g" glyph-name="g" horiz-adv-x="673" d="M389 553T447 510T528 396V546H597V-13Q597 -89 565 -146T476 -235T346 -267Q239 -267 171 -216T81 -76H151Q169 -136 217 -171T342 -206Q394 -206 436 -184T503 -117T528 -13V150Q506 79 448 36T306 -7Q232
-7 174 27T83 124T50 273Q50 359 82 422T173 519T306 553Q389 553 447 510ZM232 491T177 433T121 273Q121 172 176 114T324 55Q382 55 428 82T501 158T528 273Q528 338 502 387T429 464T324 491Q232 491 177 433Z" />
<glyph unicode="h" glyph-name="h" horiz-adv-x="635" d="M444 556T503 496T563 318V0H494V313Q494 402 449 449T326 497Q244 497 196 445T147 290V0H76V740H147V412Q168 482 223 519T349 556Q444 556 503 496Z" />
<glyph unicode="i" glyph-name="i" horiz-adv-x="223" d="M60 730T74 743T112 756Q135 756 149 743T163 708Q163 687 149 674T112 661Q89 661 75 674T60 708Q60 730 74 743ZM147 546V0H76V546H147Z" />
<glyph unicode="j" glyph-name="j" horiz-adv-x="230" d="M96 661T82 674T67 708Q67 730 81 743T119 756Q142 756 156 743T170 708Q170 687 156 674T119 661Q96 661 82 674ZM-27 -196H11Q49 -196 66 -179T84 -120V546H154V-124Q154 -258 18 -258H-27V-196Z" />
<glyph unicode="k" glyph-name="k" horiz-adv-x="465" d="M368 0L147 250V0H76V740H147V306L364 546H451L200 276L458 0H368Z" />
<glyph unicode="l" glyph-name="l" horiz-adv-x="223" d="M147 740V0H76V740H147Z" />
<glyph unicode="m" glyph-name="m" horiz-adv-x="1021" d="M833 556T891 496T950 318V0H880V313Q880 401 838 448T721 495Q642 495 595 443T548 290V0H479V313Q479 401 437 448T320 495Q241 495 194 443T147 290V0H76V546H147V416Q167 485 219 520T341 556Q413
556 465 518T537 406Q559 479 614 517T739 556Q833 556 891 496Z" />
<glyph unicode="n" glyph-name="n" horiz-adv-x="635" d="M444 556T503 496T563 318V0H494V313Q494 402 449 449T326 497Q244 497 196 445T147 290V0H76V546H147V412Q168 482 223 519T349 556Q444 556 503 496Z" />
<glyph unicode="o" glyph-name="o" horiz-adv-x="644" d="M401 553T462 520T559 423T594 273Q594 187 559 124T463 27T323 -7Q245 -7 183 27T86 124T50 273Q50 359 85 422T183 519T323 553Q401 553 462 520ZM269 492T223 468T149 395T121 273Q121 201 149 152T223
79T323 55Q376 55 421 79T495 152T523 273Q523 345 495 394T422 468T323 492Q269 492 223 468Z" />
<glyph unicode="p" glyph-name="p" horiz-adv-x="673" d="M443 553T500 520T590 423T623 273Q623 188 591 125T500 27T368 -7Q284 -7 226 36T146 150V-258H76V546H146V396Q168 467 226 510T368 553Q443 553 500 520ZM291 491T245 464T172 388T146 273Q146 208
172 159T244 82T349 55Q442 55 497 113T552 273Q552 374 497 432T349 491Q291 491 245 464Z" />
<glyph unicode="q" glyph-name="q" horiz-adv-x="673" d="M391 552T447 512T528 403V546H597V-258H528V146Q504 76 447 35T310 -7Q235 -7 176 27T84 125T50 272Q50 356 83 419T176 517T310 552Q391 552 447 512ZM233 491T177 433T121 272Q121 170 177 113T324
55Q381 55 427 81T501 157T528 273Q528 339 501 388T428 464T324 491Q233 491 177 433Z" />
<glyph unicode="r" glyph-name="r" horiz-adv-x="370" d="M171 492T224 524T353 556V480H330Q251 480 199 438T147 299V0H76V546H147V433Q171 492 224 524Z" />
<glyph unicode="s" glyph-name="s" horiz-adv-x="507" d="M330 553T384 506T450 379H383Q377 432 340 466T239 501Q185 501 155 475T124 404Q124 371 143 351T192 321T270 299Q330 285 366 271T429 225T455 141Q455 76 407 35T278 -7Q184 -7 124 39T53 167H121Q127
113 168 79T279 45Q331 45 360 72T389 142Q389 177 369 198T320 229T239 252Q180 266 145 280T84 323T59 404Q59 471 108 512T241 553Q330 553 384 506Z" />
<glyph unicode="t" glyph-name="t" horiz-adv-x="363" d="M324 62V0H259Q180 0 141 37T102 164V485H19V546H102V684H173V546H323V485H173V163Q173 105 194 84T268 62H324Z" />
<glyph unicode="u" glyph-name="u" horiz-adv-x="624" d="M547 546V0H477V135Q456 64 401 27T275 -10Q179 -10 120 50T60 228V546H130V234Q130 144 175 97T298 49Q380 49 428 101T477 256V546H547Z" />
<glyph unicode="v" glyph-name="v" horiz-adv-x="554" d="M278 79L461 546H537L317 0H237L17 546H93L278 79Z" />
<glyph unicode="w" glyph-name="w" horiz-adv-x="828" d="M814 546L653 0H579L415 464L249 0H176L15 546H86L216 73L380 546H452L617 73L746 546H814Z" />
<glyph unicode="x" glyph-name="x" horiz-adv-x="479" d="M384 0L234 223L95 0H18L196 281L18 546H98L244 329L381 546H458L281 273L464 0H384Z" />
<glyph unicode="y" glyph-name="y" horiz-adv-x="547" d="M91 546L281 91L456 546H534L213 -258H133L243 6L13 546H91Z" />
<glyph unicode="z" glyph-name="z" horiz-adv-x="435" d="M104 60H407V0H28V57L318 487H36V546H397V489L104 60Z" />
<glyph unicode="{" glyph-name="braceleft" horiz-adv-x="348" d="M160 359T189 317T218 217Q218 182 207 131Q200 94 197 70T194 14Q194 -67 231 -125T317 -210V-217H250Q227 -204 200 -175T150 -97T128 19Q128 65 142 131Q153 186 153 218Q153 264 132 300T44
354V390Q110 407 131 443T153 526Q153 558 142 613Q128 679 128 725Q128 791 150 840T199 919T250 961H317V954Q269 927 232 869T194 730Q194 698 197 674T207 614Q218 563 218 528Q218 469 189 428T101 373V371Q160 359 189 317Z" />
<glyph unicode="|" glyph-name="bar" horiz-adv-x="208" d="M139 -101H69V791H139V-101Z" />
<glyph unicode="}" glyph-name="braceright" horiz-adv-x="350" d="M196 386T167 426T138 523Q138 558 149 609Q156 644 159 668T162 725Q162 779 144 825T97 905T39 954V961H106Q129 948 156 919T206 841T228 725Q228 679 214 613Q203 558 203 526Q203 480 225
443T312 390V354Q247 339 225 302T203 218Q203 186 214 131Q228 65 228 19Q228 -47 206 -96T157 -175T106 -217H39V-210Q69 -194 97 -161T143 -82T162 19Q162 51 159 75T149 136Q138 187 138 222Q138 278 167 318T255 371V373Q196 386 167 426Z" />
<glyph unicode="~" glyph-name="asciitilde" horiz-adv-x="487" d="M187 387T207 378T256 351Q281 335 297 328T331 320Q356 320 373 338T395 387H452Q441 323 409 289T326 255Q301 255 281 264T232 291Q207 307 191 314T156 322Q130 322 114 304T91 255H35Q46
319 78 353T161 387Q187 387 207 378Z" />
<glyph unicode="&#xa0;" glyph-name="uni00A0" horiz-adv-x="260" />
<glyph unicode="&#xa1;" glyph-name="exclamdown" horiz-adv-x="284" d="M179 -161L168 360H112L101 -161H179ZM188 466V556H95V466H188Z" />
<glyph unicode="&#xa2;" glyph-name="cent" horiz-adv-x="586" d="M366 73T413 110T470 211H536Q525 125 465 72T313 15V-91H275V16Q173 24 112 90T50 266Q50 376 111 441T275 515V615H313V516Q404 512 464 460T536 321H470Q459 385 413 422T300 459Q250 459 209
438T143 373T118 266Q118 172 170 123T300 73Q366 73 413 110Z" />
<glyph unicode="&#xa3;" glyph-name="sterling" horiz-adv-x="575" d="M245 184T226 141T166 56H532V-2H99L89 39Q135 88 157 129T179 229Q179 263 163 315H45V364H146Q129 410 120 449T110 530Q110 587 135 631T207 701T315 726Q411 726 469 669T536 524H470Q463
587 422 627T317 668Q257 668 218 631T178 524Q178 487 187 455T216 364H403V315H232Q245 271 245 232Q245 184 226 141Z" />
<glyph unicode="&#xa4;" glyph-name="currency" horiz-adv-x="527" d="M434 312T397 265L456 207L426 177L367 236Q324 202 264 202Q201 202 158 236L100 177L69 207L128 266Q94 313 94 378Q94 444 130 491L69 550L100 580L160 520Q204 552 264 552Q322 552 366
520L426 580L456 550L396 491Q434 445 434 378Q434 312 397 265ZM310 247T343 282T376 377Q376 436 343 471T264 507Q215 507 184 472T152 377Q152 316 183 282T264 247Q310 247 343 282Z" />
<glyph unicode="&#xa5;" glyph-name="yen" horiz-adv-x="605" d="M392 373H540V323H365L340 275V240H540V189H340V0H270V189H70V240H270V275L244 323H70V373H218L41 705H123L305 341L487 705H567L392 373Z" />
<glyph unicode="&#xa6;" glyph-name="brokenbar" horiz-adv-x="251" d="M90 791H161V421H90V791ZM161 -101H90V271H161V-101Z" />
<glyph unicode="&#xa7;" glyph-name="section" horiz-adv-x="573" d="M496 74T496 -24Q496 -88 446 -128T307 -169Q213 -169 154 -122T85 8H154Q161 -47 198 -82T308 -117Q361 -117 393 -95T425 -27Q425 17 388 45T260 101Q158 130 104 170T50 286Q50 345 93 390T216
447Q77 500 77 598Q77 662 128 701T270 741Q363 741 420 694T489 564H419Q415 615 378 652T269 689Q214 689 181 667T148 601Q148 557 185 528T314 471Q415 442 469 402T523 286Q523 228 481 184T360 125Q496 74 496 -24ZM125 230T168 196T289 162Q340 162 376
179T430 224T449 286Q449 342 406 376T285 410Q210 410 168 374T125 286Q125 230 168 196Z" />
<glyph unicode="&#xa8;" glyph-name="dieresis" horiz-adv-x="344" d="M50 688T62 700T94 713Q112 713 125 701T138 669Q138 651 125 638T94 625Q75 625 63 638T50 669Q50 688 62 700ZM207 688T219 700T250 713Q269 713 281 701T294 669Q294 651 282 638T250 625Q232
625 220 638T207 669Q207 688 219 700Z" />
<glyph unicode="&#xa9;" glyph-name="copyright" horiz-adv-x="795" d="M297 707T219 662T97 537T53 354Q53 251 96 171T218 45T398 0Q499 0 577 45T699 170T743 354Q743 457 700 537T578 662T398 707Q297 707 219 662ZM492 677T563 636T672 521T710 354Q710 260
672 187T563 72T398 30Q303 30 232 71T123 186T85 354Q85 447 123 520T232 635T398 677Q492 677 563 636ZM475 587T532 545T607 426H545Q529 479 489 507T399 536Q357 536 321 515T264 453T242 353Q242 295 263 254T321 192T399 171Q449 171 489 199T545 281H607Q589
205 532 163T401 120Q341 120 292 147T213 227T184 354Q184 427 213 479T291 559T401 587Q475 587 532 545Z" />
<glyph unicode="&#xaa;" glyph-name="ordfeminine" horiz-adv-x="445" d="M251 710T287 685T338 615V704H394V354H338V443Q323 398 287 373T198 348Q125 348 80 397T35 529Q35 611 80 660T198 710Q251 710 287 685ZM160 664T126 627T92 528Q92 467 126 431T212
394Q268 394 303 430T338 529Q338 591 303 627T212 664Q160 664 126 627Z" />
<glyph unicode="&#xab;" glyph-name="guillemotleft" horiz-adv-x="435" d="M145 120L45 295L145 470H215L114 295L215 120H145ZM317 120L218 295L317 470H388L286 295L388 120H317Z" />
<glyph unicode="&#xac;" glyph-name="logicalnot" horiz-adv-x="730" d="M680 430V230H611V374H50V430H680Z" />
<glyph unicode="&#xad;" glyph-name="uni00AD" horiz-adv-x="477" d="M625 400V341H235V400H625Z" />
<glyph unicode="&#xae;" glyph-name="registered" horiz-adv-x="795" d="M500 707T578 663T699 539T743 354Q743 251 700 171T578 45T398 -1Q297 -1 219 44T97 170T53 354Q53 459 96 539T218 663T398 707Q500 707 578 663ZM493 36T563 75T672 187T710 354Q710
451 672 524T564 638T398 678Q303 678 232 638T123 525T85 354Q85 259 123 187T232 76T398 36Q493 36 563 75ZM571 411T538 378T440 340L571 143H517L389 339H313V143H265V591H417Q494 591 532 557T571 466Q571 411 538 378ZM521 374T521 461Q521 503 496 525T413
547H313V374H413Q521 374 521 461Z" />
<glyph unicode="&#xaf;" glyph-name="overscore" horiz-adv-x="405" d="M372 700V650H33V700H372Z" />
<glyph unicode="&#xb0;" glyph-name="degree" horiz-adv-x="391" d="M271 697T317 650T363 523Q363 443 318 395T197 347Q121 347 75 395T28 523Q28 602 74 649T196 697Q271 697 317 650ZM146 655T116 620T86 522Q86 460 116 425T197 390Q246 390 276 425T306
522Q306 585 276 620T196 655Q146 655 116 620Z" />
<glyph unicode="&#xb1;" glyph-name="plusminus" horiz-adv-x="580" d="M545 443V379H324V160H255V379H35V443H255V634H324V443H545ZM35 156H545V92H35V156Z" />
<glyph unicode="&#xb2;" glyph-name="twosuperior" horiz-adv-x="331" d="M294 397V352H42V390L161 492Q194 521 211 547T229 606Q229 637 213 652T169 668Q137 668 119 649T96 591H40Q44 642 78 676T174 710Q228 710 258 683T288 610Q288 568 263 535T186 464L102
397H294Z" />
<glyph unicode="&#xb3;" glyph-name="threesuperior" horiz-adv-x="327" d="M222 710T256 683T290 611Q290 580 273 559T221 530V527Q256 518 274 497T293 442Q293 402 260 375T167 348Q104 348 72 374T33 454H91Q95 418 114 404T164 389Q198 389 216 405T235
450Q235 481 214 497T158 514H105V541H158Q192 541 211 558T231 605Q231 633 213 650T164 667Q102 667 90 609H36Q42 653 74 681T169 710Q222 710 256 683Z" />
<glyph unicode="&#xb4;" glyph-name="acute" horiz-adv-x="270" d="M238 711L33 590V642L238 770V711Z" />
<glyph unicode="&#xb5;" glyph-name="uni00B5" horiz-adv-x="652" d="M570 546V0H499V130Q479 62 427 26T308 -10Q257 -10 216 12T152 85V-258H83V546H152V264Q152 160 200 106T329 52Q407 52 453 104T499 256V546H570Z" />
<glyph unicode="&#xb6;" glyph-name="paragraph" horiz-adv-x="561" d="M479 0H420V635H324V0H265V289H257Q140 289 81 344T21 489Q21 579 81 634T257 690H479V0Z" />
<glyph unicode="&#xb7;" glyph-name="middot" horiz-adv-x="162" d="M127 390V300H34V390H127Z" />
<glyph unicode="&#xb8;" glyph-name="cedilla" horiz-adv-x="273" d="M171 -71T205 -93T240 -163Q240 -208 208 -233T123 -258H33V-215H115Q188 -215 188 -162Q188 -139 171 -126T115 -112H66V7H113V-74Q171 -71 205 -93Z" />
<glyph unicode="&#xb9;" glyph-name="onesuperior" horiz-adv-x="187" d="M35 659V704H148V352H92V659H35Z" />
<glyph unicode="&#xba;" glyph-name="ordmasculine" horiz-adv-x="427" d="M266 709T307 686T370 622T393 527Q393 474 371 433T307 368T214 344Q162 344 122 367T58 432T35 527Q35 580 58 621T121 686T214 709Q266 709 307 686ZM161 663T127 627T92 527Q92 463
126 427T214 391Q267 391 301 427T336 527Q336 591 302 627T214 663Q161 663 127 627Z" />
<glyph unicode="&#xbb;" glyph-name="guillemotright" horiz-adv-x="435" d="M153 295L50 470H122L220 295L122 120H50L153 295ZM325 295L223 470H294L393 295L294 120H223L325 295Z" />
<glyph unicode="&#xbc;" glyph-name="onequarter" horiz-adv-x="604" d="M497 705L140 0H70L428 705H497ZM56 659V704H169V352H113V659H56ZM568 72H518V0H462V72H282V106L450 354H518V109H568V72ZM464 294L339 110H464V294Z" />
<glyph unicode="&#xbd;" glyph-name="onehalf" horiz-adv-x="677" d="M487 706L127 0H58L418 706H487ZM116 659H59V704H172V352H116V659ZM627 44V-1H375V37L494 139Q527 168 544 194T562 253Q562 284 546 299T502 315Q470 315 452 296T429 238H373Q377 289 411
323T507 357Q561 357 591 330T621 257Q621 215 596 182T519 111L435 44H627Z" />
<glyph unicode="&#xbe;" glyph-name="threequarters" horiz-adv-x="655" d="M248 710T282 683T316 611Q316 580 299 559T247 530V527Q282 518 300 497T319 442Q319 402 286 375T193 348Q130 348 98 374T59 454H117Q121 418 140 404T190 389Q224 389 242 405T261
450Q261 481 240 497T184 514H131V541H184Q218 541 237 558T257 605Q257 633 239 650T190 667Q128 667 116 609H62Q68 653 100 681T195 710Q248 710 282 683ZM568 706L215 0H146L499 706H568ZM621 72H571V0H515V72H335V106L498 354H571V109H621V72ZM518 299L392
109H518V299Z" />
<glyph unicode="&#xbf;" glyph-name="questiondown" horiz-adv-x="481" d="M159 -181T102 -128T44 19Q44 128 110 180T293 234V360H360V185H327Q231 185 172 150T113 19Q113 -47 152 -84T257 -122Q326 -122 368 -84T410 17H477Q478 -42 450 -87T371 -156T255 -181Q159
-181 102 -128ZM280 456V546H372V456H280Z" />
<glyph unicode="&#xc0;" glyph-name="Agrave" horiz-adv-x="644" d="M483 172H162L98 0H23L283 689H362L622 0H546L483 172ZM462 228L323 608L182 228H462ZM350 801V749L145 870V929L350 801Z" />
<glyph unicode="&#xc1;" glyph-name="Aacute" horiz-adv-x="644" d="M483 172H162L98 0H23L283 689H362L622 0H546L483 172ZM462 228L323 608L182 228H462ZM493 870L288 749V801L493 929V870Z" />
<glyph unicode="&#xc2;" glyph-name="Acircumflex" horiz-adv-x="644" d="M483 172H162L98 0H23L283 689H362L622 0H546L483 172ZM462 228L323 608L182 228H462ZM323 855L189 772V823L323 905L457 823V772L323 855Z" />
<glyph unicode="&#xc3;" glyph-name="Atilde" horiz-adv-x="644" d="M483 172H162L98 0H23L283 689H362L622 0H546L483 172ZM462 228L323 608L182 228H462ZM282 859T296 852T327 833Q342 822 354 816T380 810Q397 810 409 822T424 857H465Q460 813 437 789T378
764Q359 764 344 771T311 791Q294 803 284 808T261 813Q225 813 219 765H178Q185 811 206 835T263 859Q282 859 296 852Z" />
<glyph unicode="&#xc4;" glyph-name="Adieresis" horiz-adv-x="644" d="M483 172H162L98 0H23L283 689H362L622 0H546L483 172ZM462 228L323 608L182 228H462ZM200 847T212 859T244 872Q262 872 275 860T288 828Q288 810 275 797T244 784Q225 784 213 797T200
828Q200 847 212 859ZM357 847T369 859T400 872Q419 872 431 860T444 828Q444 810 432 797T400 784Q382 784 370 797T357 828Q357 847 369 859Z" />
<glyph unicode="&#xc5;" glyph-name="Aring" horiz-adv-x="644" d="M483 172H162L98 0H23L283 689H362L622 0H546L483 172ZM462 228L323 608L182 228H462ZM365 970T394 943T423 869Q423 824 394 797T322 769Q279 769 251 796T222 869Q222 915 250 942T322 970Q365
970 394 943ZM294 935T276 917T258 869Q258 839 276 821T322 803Q350 803 368 821T386 869Q386 899 368 917T322 935Q294 935 276 917Z" />
<glyph unicode="&#xc6;" glyph-name="AE" horiz-adv-x="874" d="M525 648V383H798V327H525V58H828V0H455V170H184L85 0H8L417 705H828V648H525ZM455 225V635L216 225H455Z" />
<glyph unicode="&#xc7;" glyph-name="Ccedilla" horiz-adv-x="765" d="M513 712T596 651T713 481H639Q611 557 546 602T385 647Q312 647 253 611T159 508T125 352Q125 263 159 197T252 94T385 58Q481 58 546 103T639 224H713Q679 116 596 55T386 -7Q289 -7 213
39T95 166T53 352Q53 457 95 539T213 666T386 712Q513 712 596 651ZM465 -71T499 -93T534 -163Q534 -208 502 -233T417 -258H327V-215H409Q482 -215 482 -162Q482 -139 465 -126T409 -112H360V7H407V-74Q465 -71 499 -93Z" />
<glyph unicode="&#xc8;" glyph-name="Egrave" horiz-adv-x="498" d="M147 648V382H422V327H147V58H452V0H76V705H452V648H147ZM293 801V749L88 870V929L293 801Z" />
<glyph unicode="&#xc9;" glyph-name="Eacute" horiz-adv-x="498" d="M147 648V382H422V327H147V58H452V0H76V705H452V648H147ZM435 870L230 749V801L435 929V870Z" />
<glyph unicode="&#xca;" glyph-name="Ecircumflex" horiz-adv-x="498" d="M147 648V382H422V327H147V58H452V0H76V705H452V648H147ZM265 855L131 772V823L265 905L399 823V772L265 855Z" />
<glyph unicode="&#xcb;" glyph-name="Edieresis" horiz-adv-x="498" d="M147 648V382H422V327H147V58H452V0H76V705H452V648H147ZM143 847T155 859T187 872Q205 872 218 860T231 828Q231 810 218 797T187 784Q168 784 156 797T143 828Q143 847 155 859ZM300 847T312
859T343 872Q362 872 374 860T387 828Q387 810 375 797T343 784Q325 784 313 797T300 828Q300 847 312 859Z" />
<glyph unicode="&#xcc;" glyph-name="Igrave" horiz-adv-x="223" d="M147 705V0H76V705H147ZM140 801V749L-65 870V929L140 801Z" />
<glyph unicode="&#xcd;" glyph-name="Iacute" horiz-adv-x="223" d="M147 705V0H76V705H147ZM283 870L78 749V801L283 929V870Z" />
<glyph unicode="&#xce;" glyph-name="Icircumflex" horiz-adv-x="223" d="M147 705V0H76V705H147ZM112 855L-22 772V823L112 905L246 823V772L112 855Z" />
<glyph unicode="&#xcf;" glyph-name="Idieresis" horiz-adv-x="223" d="M147 705V0H76V705H147ZM-10 847T2 859T34 872Q52 872 65 860T78 828Q78 810 65 797T34 784Q15 784 3 797T-10 828Q-10 847 2 859ZM147 847T159 859T190 872Q209 872 221 860T234 828Q234
810 222 797T190 784Q172 784 160 797T147 828Q147 847 159 859Z" />
<glyph unicode="&#xd0;" glyph-name="Eth" horiz-adv-x="742" d="M497 705T593 612T690 353Q690 244 647 165T521 43T319 0H106V324H8V382H106V705H319Q497 705 593 612ZM463 63T541 139T619 353Q619 490 541 566T314 643H177V382H384V324H177V63H314Q463 63 541 139Z" />
<glyph unicode="&#xd1;" glyph-name="Ntilde" horiz-adv-x="680" d="M604 0H533L147 589V0H76V704H147L533 114V704H604V0ZM300 859T314 852T345 833Q360 822 372 816T398 810Q415 810 427 822T442 857H483Q478 813 455 789T396 764Q377 764 362 771T329 791Q312
803 302 808T279 813Q243 813 237 765H196Q203 811 224 835T281 859Q300 859 314 852Z" />
<glyph unicode="&#xd2;" glyph-name="Ograve" horiz-adv-x="791" d="M494 713T572 667T694 539T739 353Q739 249 695 167T572 38T396 -8Q298 -8 220 38T98 166T53 353Q53 457 97 539T220 667T396 713Q494 713 572 667ZM319 648T258 612T161 509T125 353Q125 264
160 197T257 94T396 58Q473 58 534 94T631 197T667 353Q667 442 632 509T535 612T396 648Q319 648 258 612ZM424 801V749L219 870V929L424 801Z" />
<glyph unicode="&#xd3;" glyph-name="Oacute" horiz-adv-x="791" d="M494 713T572 667T694 539T739 353Q739 249 695 167T572 38T396 -8Q298 -8 220 38T98 166T53 353Q53 457 97 539T220 667T396 713Q494 713 572 667ZM319 648T258 612T161 509T125 353Q125 264
160 197T257 94T396 58Q473 58 534 94T631 197T667 353Q667 442 632 509T535 612T396 648Q319 648 258 612ZM567 870L362 749V801L567 929V870Z" />
<glyph unicode="&#xd4;" glyph-name="Ocircumflex" horiz-adv-x="791" d="M494 713T572 667T694 539T739 353Q739 249 695 167T572 38T396 -8Q298 -8 220 38T98 166T53 353Q53 457 97 539T220 667T396 713Q494 713 572 667ZM319 648T258 612T161 509T125 353Q125
264 160 197T257 94T396 58Q473 58 534 94T631 197T667 353Q667 442 632 509T535 612T396 648Q319 648 258 612ZM397 855L263 772V823L397 905L531 823V772L397 855Z" />
<glyph unicode="&#xd5;" glyph-name="Otilde" horiz-adv-x="791" d="M494 713T572 667T694 539T739 353Q739 249 695 167T572 38T396 -8Q298 -8 220 38T98 166T53 353Q53 457 97 539T220 667T396 713Q494 713 572 667ZM319 648T258 612T161 509T125 353Q125 264
160 197T257 94T396 58Q473 58 534 94T631 197T667 353Q667 442 632 509T535 612T396 648Q319 648 258 612ZM356 859T370 852T401 833Q416 822 428 816T454 810Q471 810 483 822T498 857H539Q534 813 511 789T452 764Q433 764 418 771T385 791Q368 803 358 808T335
813Q299 813 293 765H252Q259 811 280 835T337 859Q356 859 370 852Z" />
<glyph unicode="&#xd6;" glyph-name="Odieresis" horiz-adv-x="791" d="M494 713T572 667T694 539T739 353Q739 249 695 167T572 38T396 -8Q298 -8 220 38T98 166T53 353Q53 457 97 539T220 667T396 713Q494 713 572 667ZM319 648T258 612T161 509T125 353Q125
264 160 197T257 94T396 58Q473 58 534 94T631 197T667 353Q667 442 632 509T535 612T396 648Q319 648 258 612ZM274 847T286 859T318 872Q336 872 349 860T362 828Q362 810 349 797T318 784Q299 784 287 797T274 828Q274 847 286 859ZM431 847T443 859T474 872Q493
872 505 860T518 828Q518 810 506 797T474 784Q456 784 444 797T431 828Q431 847 443 859Z" />
<glyph unicode="&#xd7;" glyph-name="multiply" horiz-adv-x="497" d="M415 158L247 326L81 159L36 205L202 371L36 537L83 584L249 418L413 583L459 538L294 373L462 205L415 158Z" />
<glyph unicode="&#xd8;" glyph-name="Oslash" horiz-adv-x="791" d="M649 604Q692 556 715 492T739 353Q739 249 695 167T572 38T396 -8Q329 -8 271 14T168 76L98 0H50L143 102Q100 150 77 214T53 353Q53 457 97 539T220 667T396 713Q462 713 520 691T624 629L694
706H741L649 604ZM125 232T189 152L578 579Q543 613 496 630T396 648Q319 648 258 612T161 509T125 353Q125 232 189 152ZM667 475T602 554L213 127Q287 58 396 58Q473 58 534 94T631 197T667 353Q667 475 602 554Z" />
<glyph unicode="&#xd9;" glyph-name="Ugrave" horiz-adv-x="652" d="M142 705V278Q142 165 191 112T327 59Q413 59 461 112T510 278V705H580V278Q580 135 511 64T326 -7Q210 -7 141 64T72 278V705H142ZM354 801V749L149 870V929L354 801Z" />
<glyph unicode="&#xda;" glyph-name="Uacute" horiz-adv-x="652" d="M142 705V278Q142 165 191 112T327 59Q413 59 461 112T510 278V705H580V278Q580 135 511 64T326 -7Q210 -7 141 64T72 278V705H142ZM496 870L291 749V801L496 929V870Z" />
<glyph unicode="&#xdb;" glyph-name="Ucircumflex" horiz-adv-x="652" d="M142 705V278Q142 165 191 112T327 59Q413 59 461 112T510 278V705H580V278Q580 135 511 64T326 -7Q210 -7 141 64T72 278V705H142ZM326 855L192 772V823L326 905L460 823V772L326 855Z" />
<glyph unicode="&#xdc;" glyph-name="Udieresis" horiz-adv-x="652" d="M142 705V278Q142 165 191 112T327 59Q413 59 461 112T510 278V705H580V278Q580 135 511 64T326 -7Q210 -7 141 64T72 278V705H142ZM204 847T216 859T248 872Q266 872 279 860T292 828Q292
810 279 797T248 784Q229 784 217 797T204 828Q204 847 216 859ZM361 847T373 859T404 872Q423 872 435 860T448 828Q448 810 436 797T404 784Q386 784 374 797T361 828Q361 847 373 859Z" />
<glyph unicode="&#xdd;" glyph-name="Yacute" horiz-adv-x="571" d="M549 705L322 275V0H251V275L23 705H104L286 350L468 705H549ZM457 870L252 749V801L457 929V870Z" />
<glyph unicode="&#xde;" glyph-name="Thorn" horiz-adv-x="558" d="M147 151V0H76V705H146V557H287Q406 557 464 503T523 353Q523 256 463 204T287 151H147ZM372 208T412 245T452 353Q452 425 412 462T281 500H147V208H281Q372 208 412 245Z" />
<glyph unicode="&#xdf;" glyph-name="germandbls" horiz-adv-x="634" d="M540 318T571 271T602 158Q602 110 579 72T514 11T418 -11Q330 -11 280 38T228 176H288Q290 120 321 86T412 51Q471 51 502 84T533 163Q533 206 512 240T437 310L278 411V445L314 464Q350
482 366 507T383 569Q383 621 352 653T270 686Q212 686 179 653T146 560L147 0H76V548Q76 646 129 698T277 750Q356 750 405 706T455 590Q455 542 431 508T353 449L341 444L468 363Q540 318 571 271Z" />
<glyph unicode="&#xe0;" glyph-name="agrave" horiz-adv-x="673" d="M389 553T447 510T528 396V546H597V0H528V150Q506 79 448 36T306 -7Q232 -7 174 27T83 124T50 273Q50 359 82 422T173 519T306 553Q389 553 447 510ZM232 491T177 433T121 273Q121 172 176 114T324
55Q382 55 428 82T501 158T528 273Q528 338 502 387T429 464T324 491Q232 491 177 433ZM352 642V590L147 711V770L352 642Z" />
<glyph unicode="&#xe1;" glyph-name="aacute" horiz-adv-x="673" d="M389 553T447 510T528 396V546H597V0H528V150Q506 79 448 36T306 -7Q232 -7 174 27T83 124T50 273Q50 359 82 422T173 519T306 553Q389 553 447 510ZM232 491T177 433T121 273Q121 172 176 114T324
55Q382 55 428 82T501 158T528 273Q528 338 502 387T429 464T324 491Q232 491 177 433ZM495 711L290 590V642L495 770V711Z" />
<glyph unicode="&#xe2;" glyph-name="acircumflex" horiz-adv-x="673" d="M389 553T447 510T528 396V546H597V0H528V150Q506 79 448 36T306 -7Q232 -7 174 27T83 124T50 273Q50 359 82 422T173 519T306 553Q389 553 447 510ZM232 491T177 433T121 273Q121 172
176 114T324 55Q382 55 428 82T501 158T528 273Q528 338 502 387T429 464T324 491Q232 491 177 433ZM325 696L191 613V664L325 746L459 664V613L325 696Z" />
<glyph unicode="&#xe3;" glyph-name="atilde" horiz-adv-x="673" d="M389 553T447 510T528 396V546H597V0H528V150Q506 79 448 36T306 -7Q232 -7 174 27T83 124T50 273Q50 359 82 422T173 519T306 553Q389 553 447 510ZM232 491T177 433T121 273Q121 172 176 114T324
55Q382 55 428 82T501 158T528 273Q528 338 502 387T429 464T324 491Q232 491 177 433ZM284 700T298 693T329 674Q344 663 356 657T382 651Q399 651 411 663T426 698H467Q462 654 439 630T380 605Q361 605 346 612T313 632Q296 644 286 649T263 654Q227 654 221
606H180Q187 652 208 676T265 700Q284 700 298 693Z" />
<glyph unicode="&#xe4;" glyph-name="adieresis" horiz-adv-x="673" d="M389 553T447 510T528 396V546H597V0H528V150Q506 79 448 36T306 -7Q232 -7 174 27T83 124T50 273Q50 359 82 422T173 519T306 553Q389 553 447 510ZM232 491T177 433T121 273Q121 172 176
114T324 55Q382 55 428 82T501 158T528 273Q528 338 502 387T429 464T324 491Q232 491 177 433ZM202 688T214 700T246 713Q264 713 277 701T290 669Q290 651 277 638T246 625Q227 625 215 638T202 669Q202 688 214 700ZM359 688T371 700T402 713Q421 713 433 701T446
669Q446 651 434 638T402 625Q384 625 372 638T359 669Q359 688 371 700Z" />
<glyph unicode="&#xe5;" glyph-name="aring" horiz-adv-x="673" d="M389 553T447 510T528 396V546H597V0H528V150Q506 79 448 36T306 -7Q232 -7 174 27T83 124T50 273Q50 359 82 422T173 519T306 553Q389 553 447 510ZM232 491T177 433T121 273Q121 172 176 114T324
55Q382 55 428 82T501 158T528 273Q528 338 502 387T429 464T324 491Q232 491 177 433ZM367 811T396 784T425 710Q425 665 396 638T324 610Q281 610 253 637T224 710Q224 756 252 783T324 811Q367 811 396 784ZM296 776T278 758T260 710Q260 680 278 662T324 644Q352
644 370 662T388 710Q388 740 370 758T324 776Q296 776 278 758Z" />
<glyph unicode="&#xe6;" glyph-name="ae" horiz-adv-x="1115" d="M875 50T926 87T988 188H1062Q1047 101 983 47T819 -7Q738 -7 678 34T597 151V0H528V150Q506 79 448 36T306 -7Q232 -7 174 27T83 124T50 273Q50 359 82 422T173 519T306 553Q389 553 447 510T528
396V546H597V396Q617 471 677 512T819 553Q896 553 951 520T1036 430T1065 308Q1065 280 1061 257H599Q601 188 629 142T702 73T800 50Q875 50 926 87ZM748 496T703 475T630 407T599 293H995Q999 360 973 406T901 474T801 496Q748 496 703 475ZM382 55T428 82T501
158T528 273Q528 338 502 387T429 464T324 491Q232 491 177 433T121 273Q121 172 176 114T324 55Q382 55 428 82Z" />
<glyph unicode="&#xe7;" glyph-name="ccedilla" horiz-adv-x="623" d="M421 553T489 498T573 352H500Q489 417 439 454T316 492Q263 492 219 468T148 395T121 273Q121 201 147 152T218 78T316 54Q389 54 439 91T500 194H573Q558 103 490 48T317 -7Q239 -7 179
26T84 123T50 273Q50 359 84 422T178 519T317 553Q421 553 489 498ZM384 -71T418 -93T453 -163Q453 -208 421 -233T336 -258H246V-215H328Q401 -215 401 -162Q401 -139 384 -126T328 -112H279V7H326V-74Q384 -71 418 -93Z" />
<glyph unicode="&#xe8;" glyph-name="egrave" horiz-adv-x="625" d="M388 51T438 88T498 188H572Q557 101 489 47T317 -7Q239 -7 179 26T84 123T50 273Q50 359 84 422T178 519T317 553Q397 553 455 520T544 430T575 308Q575 280 571 257H119Q120 188 147 142T219
73T314 51Q388 51 438 88ZM264 496T220 474T149 407T119 293H505Q509 360 483 406T413 474T317 496Q264 496 220 474ZM341 642V590L136 711V770L341 642Z" />
<glyph unicode="&#xe9;" glyph-name="eacute" horiz-adv-x="625" d="M388 51T438 88T498 188H572Q557 101 489 47T317 -7Q239 -7 179 26T84 123T50 273Q50 359 84 422T178 519T317 553Q397 553 455 520T544 430T575 308Q575 280 571 257H119Q120 188 147 142T219
73T314 51Q388 51 438 88ZM264 496T220 474T149 407T119 293H505Q509 360 483 406T413 474T317 496Q264 496 220 474ZM484 711L279 590V642L484 770V711Z" />
<glyph unicode="&#xea;" glyph-name="ecircumflex" horiz-adv-x="625" d="M388 51T438 88T498 188H572Q557 101 489 47T317 -7Q239 -7 179 26T84 123T50 273Q50 359 84 422T178 519T317 553Q397 553 455 520T544 430T575 308Q575 280 571 257H119Q120 188 147
142T219 73T314 51Q388 51 438 88ZM264 496T220 474T149 407T119 293H505Q509 360 483 406T413 474T317 496Q264 496 220 474ZM314 696L180 613V664L314 746L448 664V613L314 696Z" />
<glyph unicode="&#xeb;" glyph-name="edieresis" horiz-adv-x="625" d="M388 51T438 88T498 188H572Q557 101 489 47T317 -7Q239 -7 179 26T84 123T50 273Q50 359 84 422T178 519T317 553Q397 553 455 520T544 430T575 308Q575 280 571 257H119Q120 188 147 142T219
73T314 51Q388 51 438 88ZM264 496T220 474T149 407T119 293H505Q509 360 483 406T413 474T317 496Q264 496 220 474ZM191 688T203 700T235 713Q253 713 266 701T279 669Q279 651 266 638T235 625Q216 625 204 638T191 669Q191 688 203 700ZM348 688T360 700T391
713Q410 713 422 701T435 669Q435 651 423 638T391 625Q373 625 361 638T348 669Q348 688 360 700Z" />
<glyph unicode="&#xec;" glyph-name="igrave" horiz-adv-x="236" d="M153 546V0H83V546H153ZM402 642V590L197 711V770L402 642Z" />
<glyph unicode="&#xed;" glyph-name="iacute" horiz-adv-x="236" d="M153 546V0H83V546H153ZM289 711L84 590V642L289 770V711Z" />
<glyph unicode="&#xee;" glyph-name="icircumflex" horiz-adv-x="236" d="M153 546V0H83V546H153ZM375 696L241 613V664L375 746L509 664V613L375 696Z" />
<glyph unicode="&#xef;" glyph-name="idieresis" horiz-adv-x="236" d="M153 546V0H83V546H153ZM252 688T264 700T296 713Q314 713 327 701T340 669Q340 651 327 638T296 625Q277 625 265 638T252 669Q252 688 264 700ZM409 688T421 700T452 713Q471 713 483 701T496
669Q496 651 484 638T452 625Q434 625 422 638T409 669Q409 688 421 700Z" />
<glyph unicode="&#xf0;" glyph-name="eth" horiz-adv-x="645" d="M595 514T595 310Q595 207 561 136T465 29T324 -7Q243 -7 181 29T85 132T50 286Q50 367 83 428T178 522T318 556Q389 556 444 518T523 403Q509 478 480 538T397 655L255 606V638L373 679Q350 702
303 740H368Q404 710 420 695L550 740V708L444 671Q595 514 595 310ZM380 55T425 80T497 155T523 273Q523 343 496 393T424 469T323 495Q266 495 220 471T148 399T122 285Q122 213 148 161T220 82T324 55Q380 55 425 80Z" />
<glyph unicode="&#xf1;" glyph-name="ntilde" horiz-adv-x="635" d="M444 556T503 496T563 318V0H494V313Q494 402 449 449T326 497Q244 497 196 445T147 290V0H76V546H147V412Q168 482 223 519T349 556Q444 556 503 496ZM280 700T294 693T325 674Q340 663 352
657T378 651Q395 651 407 663T422 698H463Q458 654 435 630T376 605Q357 605 342 612T309 632Q292 644 282 649T259 654Q223 654 217 606H176Q183 652 204 676T261 700Q280 700 294 693Z" />
<glyph unicode="&#xf2;" glyph-name="ograve" horiz-adv-x="644" d="M401 553T462 520T559 423T594 273Q594 187 559 124T463 27T323 -7Q245 -7 183 27T86 124T50 273Q50 359 85 422T183 519T323 553Q401 553 462 520ZM269 492T223 468T149 395T121 273Q121 201
149 152T223 79T323 55Q376 55 421 79T495 152T523 273Q523 345 495 394T422 468T323 492Q269 492 223 468ZM350 642V590L145 711V770L350 642Z" />
<glyph unicode="&#xf3;" glyph-name="oacute" horiz-adv-x="644" d="M401 553T462 520T559 423T594 273Q594 187 559 124T463 27T323 -7Q245 -7 183 27T86 124T50 273Q50 359 85 422T183 519T323 553Q401 553 462 520ZM269 492T223 468T149 395T121 273Q121 201
149 152T223 79T323 55Q376 55 421 79T495 152T523 273Q523 345 495 394T422 468T323 492Q269 492 223 468ZM493 711L288 590V642L493 770V711Z" />
<glyph unicode="&#xf4;" glyph-name="ocircumflex" horiz-adv-x="644" d="M401 553T462 520T559 423T594 273Q594 187 559 124T463 27T323 -7Q245 -7 183 27T86 124T50 273Q50 359 85 422T183 519T323 553Q401 553 462 520ZM269 492T223 468T149 395T121 273Q121
201 149 152T223 79T323 55Q376 55 421 79T495 152T523 273Q523 345 495 394T422 468T323 492Q269 492 223 468ZM323 696L189 613V664L323 746L457 664V613L323 696Z" />
<glyph unicode="&#xf5;" glyph-name="otilde" horiz-adv-x="644" d="M401 553T462 520T559 423T594 273Q594 187 559 124T463 27T323 -7Q245 -7 183 27T86 124T50 273Q50 359 85 422T183 519T323 553Q401 553 462 520ZM269 492T223 468T149 395T121 273Q121 201
149 152T223 79T323 55Q376 55 421 79T495 152T523 273Q523 345 495 394T422 468T323 492Q269 492 223 468ZM282 700T296 693T327 674Q342 663 354 657T380 651Q397 651 409 663T424 698H465Q460 654 437 630T378 605Q359 605 344 612T311 632Q294 644 284 649T261
654Q225 654 219 606H178Q185 652 206 676T263 700Q282 700 296 693Z" />
<glyph unicode="&#xf6;" glyph-name="odieresis" horiz-adv-x="644" d="M401 553T462 520T559 423T594 273Q594 187 559 124T463 27T323 -7Q245 -7 183 27T86 124T50 273Q50 359 85 422T183 519T323 553Q401 553 462 520ZM269 492T223 468T149 395T121 273Q121
201 149 152T223 79T323 55Q376 55 421 79T495 152T523 273Q523 345 495 394T422 468T323 492Q269 492 223 468ZM201 688T213 700T245 713Q263 713 276 701T289 669Q289 651 276 638T245 625Q226 625 214 638T201 669Q201 688 213 700ZM358 688T370 700T401 713Q420
713 432 701T445 669Q445 651 433 638T401 625Q383 625 371 638T358 669Q358 688 370 700Z" />
<glyph unicode="&#xf7;" glyph-name="divide" horiz-adv-x="580" d="M336 634V544H244V634H336ZM545 402V338H35V402H545ZM336 199V109H244V199H336Z" />
<glyph unicode="&#xf8;" glyph-name="oslash" horiz-adv-x="641" d="M592 394T592 273Q592 187 557 124T461 27T321 -7Q216 -7 142 53L94 0H52L120 74Q86 111 67 161T48 273Q48 359 83 422T181 519T321 553Q428 553 500 492L549 546H591L523 471Q592 394 592 273ZM119
183T165 125L455 443Q428 467 394 479T321 492Q267 492 221 468T147 395T119 273Q119 183 165 125ZM374 55T419 79T493 152T521 273Q521 364 476 420L187 102Q241 55 321 55Q374 55 419 79Z" />
<glyph unicode="&#xf9;" glyph-name="ugrave" horiz-adv-x="624" d="M547 546V0H477V135Q456 64 401 27T275 -10Q179 -10 120 50T60 228V546H130V234Q130 144 175 97T298 49Q380 49 428 101T477 256V546H547ZM332 642V590L127 711V770L332 642Z" />
<glyph unicode="&#xfa;" glyph-name="uacute" horiz-adv-x="624" d="M547 546V0H477V135Q456 64 401 27T275 -10Q179 -10 120 50T60 228V546H130V234Q130 144 175 97T298 49Q380 49 428 101T477 256V546H547ZM474 711L269 590V642L474 770V711Z" />
<glyph unicode="&#xfb;" glyph-name="ucircumflex" horiz-adv-x="624" d="M547 546V0H477V135Q456 64 401 27T275 -10Q179 -10 120 50T60 228V546H130V234Q130 144 175 97T298 49Q380 49 428 101T477 256V546H547ZM304 696L170 613V664L304 746L438 664V613L304 696Z" />
<glyph unicode="&#xfc;" glyph-name="udieresis" horiz-adv-x="624" d="M547 546V0H477V135Q456 64 401 27T275 -10Q179 -10 120 50T60 228V546H130V234Q130 144 175 97T298 49Q380 49 428 101T477 256V546H547ZM182 688T194 700T226 713Q244 713 257 701T270
669Q270 651 257 638T226 625Q207 625 195 638T182 669Q182 688 194 700ZM339 688T351 700T382 713Q401 713 413 701T426 669Q426 651 414 638T382 625Q364 625 352 638T339 669Q339 688 351 700Z" />
<glyph unicode="&#xfd;" glyph-name="yacute" horiz-adv-x="547" d="M91 546L281 91L456 546H534L213 -258H133L243 6L13 546H91ZM444 711L239 590V642L444 770V711Z" />
<glyph unicode="&#xfe;" glyph-name="thorn" horiz-adv-x="673" d="M439 552T498 518T590 420T623 272Q623 188 590 125T498 28T364 -7Q283 -7 227 34T146 146V-258H76V740H146V403Q169 472 226 512T364 552Q439 552 498 518ZM292 491T246 465T173 389T146 273Q146
207 172 158T245 82T350 55Q441 55 496 112T552 272Q552 374 497 432T350 491Q292 491 246 465Z" />
<glyph unicode="&#xff;" glyph-name="ydieresis" horiz-adv-x="547" d="M91 546L281 91L456 546H534L213 -258H133L243 6L13 546H91ZM152 688T164 700T196 713Q214 713 227 701T240 669Q240 651 227 638T196 625Q177 625 165 638T152 669Q152 688 164 700ZM309
688T321 700T352 713Q371 713 383 701T396 669Q396 651 384 638T352 625Q334 625 322 638T309 669Q309 688 321 700Z" />
<glyph unicode="&#x2013;" glyph-name="endash" horiz-adv-x="607" d="M563 400V341H44V400H563Z" />
<glyph unicode="&#x2014;" glyph-name="emdash" horiz-adv-x="807" d="M763 400V341H44V400H763Z" />
<glyph unicode="&#x2018;" glyph-name="quoteleft" horiz-adv-x="162" d="M35 635T35 672Q35 774 127 774V740Q101 740 90 727T79 687V663H126V586H45Q35 635 35 672Z" />
<glyph unicode="&#x2019;" glyph-name="quoteright" horiz-adv-x="162" d="M127 725T127 689Q127 586 36 586V621Q61 621 72 634T83 673V698H37V774H118Q127 725 127 689Z" />
<glyph unicode="&#x201a;" glyph-name="quotesinglbase" horiz-adv-x="173" d="M125 22T125 -12Q125 -60 102 -88T33 -117V-84Q57 -84 68 -71T79 -29V-21H34V56H115Q125 22 125 -12Z" />
<glyph unicode="&#x201c;" glyph-name="quotedblleft" horiz-adv-x="283" d="M35 635T35 672Q35 774 127 774V740Q101 740 90 727T79 687V663H126V586H45Q35 635 35 672ZM156 630T156 672Q156 774 247 774V740Q221 740 211 727T200 687V663H246V586H165Q156 630 156 672Z" />
<glyph unicode="&#x201d;" glyph-name="quotedblright" horiz-adv-x="283" d="M127 725T127 689Q127 586 36 586V621Q61 621 72 634T83 673V698H37V774H118Q127 725 127 689ZM248 727T248 689Q248 586 156 586V621Q182 621 193 634T204 673V698H157V774H238Q248
727 248 689Z" />
<glyph unicode="&#x201e;" glyph-name="quotedblbase" horiz-adv-x="283" d="M127 27T127 -9Q127 -112 36 -112V-77Q61 -77 72 -64T83 -25V0H37V76H118Q127 27 127 -9ZM248 29T248 -9Q248 -112 156 -112V-77Q182 -77 193 -64T204 -25V0H157V76H238Q248 29 248 -9Z" />
<glyph unicode="&#x<?php print date("Y") ?>;" glyph-name="bullet" horiz-adv-x="326" d="M48 382T81 416T163 450Q212 450 245 416T279 333Q279 285 246 252T163 219Q115 219 82 252T48 333Q48 382 81 416Z" />
<glyph unicode="&#x2039;" glyph-name="guilsinglleft" horiz-adv-x="265" d="M145 120L45 295L145 470H215L114 295L215 120H145Z" />
<glyph unicode="&#x203a;" glyph-name="guilsinglright" horiz-adv-x="265" d="M153 295L50 470H122L220 295L122 120H50L153 295Z" />
</font>
</defs>
</svg>
